Правила форума

  • В этом разделе создание новых тем Запрещено.
  • Для создания новых тем пользуйтесь Корневым разделом DVD и HD фильмы.
Начать новую темуОтветить на тему  [ Сообщений: 2 ] 
Торрент файл
Размер: 4.73 GB • Зарегистрирован: 4 года 5 месяцев • Статус: Проверено
Скачан: 27 раз • Желающих скачать: 0 • Поблагодарили: 12 раз
 Раздают: 0  |  0 KB/s  ]   Качают: 0  |  0 KB/s  ] 
 Полного источника не было 2 года 3 месяца 
Сообщения
 Добавлено: 2012-06-11 18:37
Top-releaser
Аватара пользователя
Стаж: 6 лет 7 месяцев
Сообщений: 2078
Спасибок: 3230
Лайков: 9
Граф Монте Кристо / The Count of Monte Cristo

Изображение


Год выпуска: 2002
Страна: США, Великобритания, Ирландия
Жанр: драма, приключения, история
Продолжительность: 02:11:11
Перевод: Профессиональный (многоголосый, закадровый)

Режиссёр: Кевин Рейнольдс
В ролях: Джеймс Кэвизел, Гай Пирс, Ричард Харрис, Джеймс Фрейн, Дагмара Доминчук, Майкл Уинкотт, Луис Гузман, Кристофер Адамсон, Джейби Бланк, Гай Карлтон
Описание: Так же, как и в знаменитой классической истории, главным героем фильма является Эдмон Дантес.
Этого бесхитростного молодого человека, собирающегося жениться на красавице Мерседес, предает его лучший друг Фернан. Оказавшись заключенным в тюрьму, Эдмон Дантес в течение тринадцати лет вынужден терпеть лишения и лелеять мысли о мести своим обидчикам. С помощью человека, сидящего с ним в соседней камере, Эдмону удается бежать из тюрьмы. После этого он появляется в обществе в качестве богатого благородного и могущественного графа Монте-Кристо, который искусно и беспощадно расправляется с людьми, обманувшими и предавшими его много лет назад…

Раздача группы: Изображение

Качество: HDTVRip
Формат: MKV
Видео кодек: H.264
Аудио кодек: AC3 (Dolby Digital)
Видео: 1280x720 (16:9), 4288 Kbps, 23.976 fps, AVC (High@L4.1)
Аудио #1: Russian 6 Ch,384 Kbps 48,0 kHz
Аудио #2: English 2 Ch 384 Kbps 48.0 KHz
Субтитры: Русские

MediaInfo
Общее
Уникальный идентификатор : 242637340550212303062733400820670345543 (0xB68A4081B5B231A0BB6B94A0EFA13147)
Полное имя : H:\Граф Монте-Кристо.mkv
Формат : Matroska
Версия формата : Version 2
Размер файла : 4,73 Гбайт
Продолжительность : 2 ч. 11 м.
Общий поток : 5158 Кбит/сек
Дата кодирования : UTC 2010-02-02 18:16:49
Программа кодирования : mkvmerge v2.9.5 ('Tu es le seul') built on Jun 7 2009 11:07:07
Библиотека кодирования : libebml v0.7.7 + libmatroska v0.8.1

Видео
Идентификатор : 1
Формат : AVC
Формат/Информация : Advanced Video Codec
Профиль формата : High@L4.1
Параметр CABAC формата : Да
Параметр ReFrames формата : 9 кадров
Идентификатор кодека : V_MPEG4/ISO/AVC
Продолжительность : 2 ч. 11 м.
Битрейт : 4288 Кбит/сек
Ширина : 1280 пикселей
Высота : 720 пикселей
Соотношение сторон : 16:9
Частота кадров : 23,976 кадра/сек
Цветовое пространство : YUV
Субдискретизация насыщенности : 4:2:0
Битовая глубина : 8 бит
Тип развёртки : Прогрессивная
Бит/(Пиксели*Кадры) : 0.194
Размер потока : 3,93 Гбайт (83%)
Заголовок : The Count of Monte Cristo 2002 720p HDTV x264
Язык : English
Default : Да
Forced : Нет

Аудио #1
Идентификатор : 2
Формат : AC-3
Формат/Информация : Audio Coding 3
Расширение режима : CM (complete main)
Параметр Endianness формата : Big
Идентификатор кодека : A_AC3
Продолжительность : 2 ч. 11 м.
Вид битрейта : Постоянный
Битрейт : 384 Кбит/сек
Каналы : 6 каналов
Расположение каналов : Front: L C R, Side: L R, LFE
Частота : 48,0 КГц
Битовая глубина : 16 бит
Метод сжатия : С потерями
Размер потока : 360 Мбайт (7%)
Язык : Russian
Default : Да
Forced : Нет

Аудио #2
Идентификатор : 3
Формат : AC-3
Формат/Информация : Audio Coding 3
Расширение режима : CM (complete main)
Параметр Endianness формата : Big
Идентификатор кодека : A_AC3
Продолжительность : 2 ч. 11 м.
Вид битрейта : Постоянный
Битрейт : 384 Кбит/сек
Каналы : 2 канала
Расположение каналов : Front: L R
Частота : 48,0 КГц
Битовая глубина : 16 бит
Метод сжатия : С потерями
Задержка видео : 32 мс.
Размер потока : 360 Мбайт (7%)
Язык : English
Default : Нет
Forced : Нет

Текст
Идентификатор : 4
Формат : UTF-8
Идентификатор кодека : S_TEXT/UTF8
Идентификатор кодека/Информация : UTF-8 Plain Text
Язык : Russian
Default : Да
Forced : Нет
Свернуть
Скриншоты
Изображение

Изображение

Изображение

Изображение
Свернуть
Не в сети
Профиль  
 Добавлено: 2013-06-16 17:02 (спустя 1 год)
Аватара пользователя
Стаж: 6 лет 5 месяцев
Возраст: 27
Сообщений: 8
Фильм хороший,но не по книге.надо же было все так переврать!!!!
Не в сети
Профиль  
Начать новую темуОтветить на тему  [ Сообщений: 2 ] 
Вы не можете начинать темы
Вы не можете отвечать на сообщения
Вы не можете редактировать свои сообщения
Вы не можете удалять свои сообщения