Правила форума

  • В этом разделе создание новых тем Запрещено.
  • Для создания новых тем пользуйтесь Корневым разделом DVD и HD фильмы.
Начать новую темуОтветить на тему  [ Сообщений: 2 ] 
Торрент файл
Размер: 29.4 GB • Зарегистрирован: 6 месяцев • Статус: T Временный релиз
Скачан: 35 раз • Желающих скачать: 0 • Поблагодарили: 14 раз
 Раздают: 0  |  0 KB/s  ]   Качают: 0  |  0 KB/s  ] 
 Полного источника не было 2 дня 23 часа 
Сообщения
 Добавлено: 2014-09-20 08:57
RG-ELEKTRO
Аватара пользователя
Стаж: 2 года 3 месяца
Сообщений: 7928
Спасибок: 53760
Лайков: 3304
Грань будущего / Edge of Tomorrow

Изображение


Изображение


Выпущено: США, 3 Arts Entertainment, Translux, Viz Media
Год выпуска: 2014
Жанр: Фантастика, боевик
Продолжительность: 01:53:29
Перевод: Дублированный (Лицензия Blu-Ray CEE), авторский одноголосый
Субтитры: Русские, украинские, английские

Режиссер: Даг Лайман

В ролях: Том Круз, Эмили Блант, Билл Пэкстон, Лара Пулвер, Джереми Пивен, Шарлотта Райли, Джонас Армстронг, Мадлен Манток, Марианн Жан-Батист, Ли Асквит-Коу

О фильме: В недалёком будущем раса инопланетян вторгается на Землю. Никакая армия в мире не может противостоять им. Майор Уильям Кейдж умирает в бою, но случается невозможное — он оказывается во временной петле. Раз за разом он попадает в один и тот же бой, сражается и умирает… снова и снова. И каждое повторяющееся сражение приближает его к разгадке того, как победить врага.

Изображение ИзображениеИзображение
Качество: Blu-Ray Remux 1080p
Формат: MKV
Видео: MPEG-4 AVC, 25642 Кбит/с, 1920x1080, 23.976 Кадр/с
Звук
Аудио №1 - Русский, AC3, 48 KHz, 6 ch, 640 kbps, 16 bit - (DUB - RUS - Blu-Ray CEE)
Аудио №2 - Русский, DTS-HD MA, 48 KHz, 8 ch, 5237 kbps, 24 bit - (AVO - RUS - Д.Есарев)
Аудио №3 - Украинский, AC3, 48 KHz, 6 ch, 640 kbps, 16 bit - (DUB - UKR - Blu-Ray CEE)
Аудио №4 - Английский, DTS-HD MA, 48 KHz, 8 ch, 5208 kbps, 24 bit - (Original - ENG - BD)
Субтитры - Русские (Forced, Full), Украинские (Full), Английские (Full, SDH, SDH-COLORED)
Сохранены оригинальные чаптеры (главы) как на Blu-Ray.


"Инфо-файл"
Общее
Уникальный идентификатор : 171803793105949601676953999069558645037 (0x814034FBFFD9064BA573C1964FC8A12D)
Полное имя : Granj.budushego.2014.x264.Blu-Ray.Remux.1080p.gogamel74.ExKinoRay.mkv
Формат : Matroska
Версия формата : Version 4 / Version 2
Размер файла : 29,4 Гбайт
Продолжительность : 1 ч. 53 м.
Режим общего битрейта : Переменный
Общий поток : 37,1 Мбит/сек
Название фильма : Granj.budushego.2014.x264.Blu-Ray.Remux.1080p.gogamel74.ExKinoRay
Дата кодирования : UTC 2014-09-26 22:00:14
Программа кодирования : mkvmerge v7.2.0 ('On Every Street') 64bit built on Sep 13 2014 15:52:10
Библиотека кодирования : libebml v1.3.0 + libmatroska v1.4.1
Attachements : CoverCommander.jpg

Видео
Идентификатор : 1
Формат : AVC
Формат/Информация : Advanced Video Codec
Профиль формата : High@L4.1
Параметр CABAC формата : Да
Параметр ReFrames формата : 2 кадра
Параметр GOP формата : M=1, N=10
Идентификатор кодека : V_MPEG4/ISO/AVC
Продолжительность : 1 ч. 53 м.
Вид битрейта : Переменный
Ширина : 1920 пикселей
Высота : 1080 пикселей
Соотношение сторон : 16:9
Режим частоты кадров : Постоянный
Частота кадров : 23,976 кадра/сек
Цветовое пространство : YUV
Субдискретизация насыщенности : 4:2:0
Битовая глубина : 8 бит
Тип развёртки : Прогрессивная
Заголовок : Granj.budushego.2014.x264.Blu-Ray.Remux.1080p.gogamel74.ExKinoRay
Язык : English
Default : Да
Forced : Да

Аудио #1
Идентификатор : 2
Формат : AC-3
Формат/Информация : Audio Coding 3
Расширение режима : CM (complete main)
Параметр Endianness формата : Big
Идентификатор кодека : A_AC3
Продолжительность : 1 ч. 53 м.
Вид битрейта : Постоянный
Битрейт : 640 Кбит/сек
Каналы : 6 каналов
Расположение каналов : Front: L C R, Side: L R, LFE
Частота : 48,0 КГц
Битовая глубина : 16 бит
Метод сжатия : С потерями
Размер потока : 520 Мбайт (2%)
Заголовок : DUB - BD CEE - AC3, 48 KHz, 6 ch, 640 kbps, 16 bit
Язык : Russian
Default : Да
Forced : Да

Аудио #2
Идентификатор : 3
Формат : AC-3
Формат/Информация : Audio Coding 3
Расширение режима : CM (complete main)
Параметр Endianness формата : Big
Идентификатор кодека : A_AC3
Продолжительность : 1 ч. 53 м.
Вид битрейта : Постоянный
Битрейт : 640 Кбит/сек
Каналы : 6 каналов
Расположение каналов : Front: L C R, Side: L R, LFE
Частота : 48,0 КГц
Битовая глубина : 16 бит
Метод сжатия : С потерями
Размер потока : 520 Мбайт (2%)
Заголовок : DUB - BD CEE - AC3, 48 KHz, 6 ch, 640 kbps, 16 bit
Язык : Ukrainian
Default : Нет
Forced : Нет

Аудио #3
Идентификатор : 4
Формат : DTS
Формат/Информация : Digital Theater Systems
Профиль формата : MA / Core
Режим : 16
Параметр Endianness формата : Big
Идентификатор кодека : A_DTS
Продолжительность : 1 ч. 53 м.
Вид битрейта : Переменный
Битрейт : Неизвестно / 1509 Кбит/сек
Каналы : 8 каналов / 6 каналов
Расположение каналов : Front: L C R, Side: L R, Back: L R, LFE / Front: L C R, Side: L R, LFE
Частота : 48,0 КГц
Битовая глубина : 24 бит
Метод сжатия : Без потерь / Lossy
Заголовок : AVO - Esarev - DTS-HD MA, 48 KHz, 8 ch, 5237 kbps, 24 bit
Язык : Russian
Default : Нет
Forced : Нет

Аудио #4
Идентификатор : 5
Формат : DTS
Формат/Информация : Digital Theater Systems
Профиль формата : MA / Core
Режим : 16
Параметр Endianness формата : Big
Идентификатор кодека : A_DTS
Продолжительность : 1 ч. 53 м.
Вид битрейта : Переменный
Битрейт : Неизвестно / 1509 Кбит/сек
Каналы : 8 каналов / 6 каналов
Расположение каналов : Front: L C R, Side: L R, Back: L R, LFE / Front: L C R, Side: L R, LFE
Частота : 48,0 КГц
Битовая глубина : 24 бит
Метод сжатия : Без потерь / Lossy
Заголовок : Original - DTS-HD MA, 48 KHz, 8 ch, 5208 kbps, 24 bit
Язык : English
Default : Нет
Forced : Нет

Текст #1
Идентификатор : 6
Формат : UTF-8
Идентификатор кодека : S_TEXT/UTF8
Идентификатор кодека/Информация : UTF-8 Plain Text
Заголовок : Forced
Язык : Russian
Default : Да
Forced : Да

Текст #2
Идентификатор : 7
Формат : UTF-8
Идентификатор кодека : S_TEXT/UTF8
Идентификатор кодека/Информация : UTF-8 Plain Text
Заголовок : Full
Язык : Russian
Default : Нет
Forced : Нет

Текст #3
Идентификатор : 8
Формат : UTF-8
Идентификатор кодека : S_TEXT/UTF8
Идентификатор кодека/Информация : UTF-8 Plain Text
Заголовок : Full
Язык : Ukrainian
Default : Нет
Forced : Нет

Текст #4
Идентификатор : 9
Формат : UTF-8
Идентификатор кодека : S_TEXT/UTF8
Идентификатор кодека/Информация : UTF-8 Plain Text
Заголовок : Full
Язык : English
Default : Нет
Forced : Нет

Текст #5
Идентификатор : 10
Формат : UTF-8
Идентификатор кодека : S_TEXT/UTF8
Идентификатор кодека/Информация : UTF-8 Plain Text
Заголовок : SDH
Язык : English
Default : Нет
Forced : Нет

Текст #6
Идентификатор : 11
Формат : UTF-8
Идентификатор кодека : S_TEXT/UTF8
Идентификатор кодека/Информация : UTF-8 Plain Text
Заголовок : SDH-COLORED
Язык : English
Default : Нет
Forced : Нет

Меню
00:00:00.000 : en:Chapter 01
00:10:28.127 : en:Chapter 02
00:17:38.724 : en:Chapter 03
00:24:50.155 : en:Chapter 04
00:35:57.905 : en:Chapter 05
00:46:27.242 : en:Chapter 06
00:54:34.479 : en:Chapter 07
01:04:59.520 : en:Chapter 08
01:12:53.035 : en:Chapter 09
01:23:08.858 : en:Chapter 10
01:32:34.131 : en:Chapter 11
01:42:53.542 : en:Chapter 12
01:45:46.173 : en:Chapter 13
Свернуть

"Скриншоты"

Изображение
Изображение
Изображение
Свернуть
Изображение


Изображение Изображение
_________________
Не ищите меня в "ВКонтакте", в "Одноклассниках" меня нет - я на трекерах сижу!
Не в сети
Профиль  
 Добавлено: 2016-05-15 10:42 (спустя 1 год 7 месяцев)
RG-ELEKTRO
Аватара пользователя
Стаж: 2 года 3 месяца
Сообщений: 7928
Спасибок: 53760
Лайков: 3304
Заменен на лицензию.
_________________
Не ищите меня в "ВКонтакте", в "Одноклассниках" меня нет - я на трекерах сижу!
Не в сети
Профиль  
Начать новую темуОтветить на тему  [ Сообщений: 2 ] 
Вы не можете начинать темы
Вы не можете отвечать на сообщения
Вы не можете редактировать свои сообщения
Вы не можете удалять свои сообщения