Правила форума

  • В этом разделе создание новых тем Запрещено.
  • Для создания новых тем пользуйтесь Корневым разделом DVD и HD фильмы.
Начать новую темуОтветить на тему  [ Сообщений: 8 ] 
Торрент файл
Размер: 15.56 GB • Зарегистрирован: 2 года 2 месяца • Статус: Проверено
Скачан: 451 раз • Желающих скачать: 0 • Поблагодарили: 128 раз
 Раздают: 6  |  0 KB/s  ]   Качают: 0  |  0 KB/s  ] 
Сообщения
 Добавлено: 2014-09-27 05:59
Аватара пользователя
Стаж: 9 лет 1 месяц
Сообщений: 7940
Спасибок: 122158
Лайков: 1191
Грань будущего / Edge of Tomorrow

«Живи. Умри. И снова»

Изображение


Год выпуска: 2014
Страна: Изображение США Изображение Австралия
Жанр: фантастика, боевик
Продолжительность: 01:53:29
Субтитры: Русские, украинские, английские
Перевод: Профессиональный (полное дублирование) [Лицензия] + Авторский (одноголосый, закадровый) [Д. Есарев]



Режиссер: Даг Лайман
Сценарий: Кристофер МакКуорри, Джез Баттеруорт, Джон-Генри Баттеруорт
Продюсер: Джейсон Хоффс, Грегори Джейкобс, Том Лассалли
Оператор: Дион Биби
Композитор: Кристоф Бек

В ролях: Том Круз, Эмили Блант, Билл Пэкстон, Лара Пулвер, Джереми Пивен, Шарлотта Райли, Джонас Армстронг, Мадлен Манток, Марианн Жан-Батист, Ли Асквит-Коу


Описание: В недалёком будущем раса инопланетян вторгается на Землю. Никакая армия в мире не может противостоять им. Майор Уильям Кейдж умирает в бою, но случается невозможное — он оказывается во временной петле. Раз за разом он попадает в один и тот же бой, сражается и умирает… снова и снова. И каждое повторяющееся сражение приближает его к разгадке того, как победить врага.


Изображение Изображение


Раздача группы: Изображение


Качество: BDRip (1080p)
Формат: Matroska
Видео: MPEG-4 AVC, 15000 Кбит/с, 1920x800
Аудио №1: Русский (AC3, 48,0 КГц, 6 ch, 640 Кбит/c) Лицензия
Аудио №2: Русский (DTS, 48,0 КГц, 6 ch, 1510 Кбит/c) Д. Есарев
Аудио №3: Украинский (AC3, 48,0 КГц, 6 ch, 640 Кбит/c)
Аудио №4: Английский (DTS, 48,0 КГц, 6 ch, 1510 Кбит/c)

MediaInfo
Полное имя : D:\Грань.будущего-Edge.of.Tomorrow.(2014).BDRip.[1080p].mkv
Формат : Matroska
Версия формата : Version 2
Размер файла : 15,6 Гбайт
Продолжительность : 1 ч. 53 м.
Общий поток : 19,6 Мбит/сек
Название фильма : Edge of Tomorrow (2014)
Дата кодирования : UTC 2014-09-26 21:22:34
Программа кодирования : mkvmerge v5.7.0 ('The Whirlwind') built on Aug 7 2012 14:11:40
Библиотека кодирования : libebml v1.2.3 + libmatroska v1.3.0
Attachment : Yes

Видео
Идентификатор : 1
Формат : AVC
Формат/Информация : Advanced Video Codec
Профиль формата : High@L4.1
Параметр CABAC формата : Да
Параметр ReFrames формата : 5 кадров
Идентификатор кодека : V_MPEG4/ISO/AVC
Продолжительность : 1 ч. 53 м.
Битрейт : 14,9 Мбит/сек
Ширина : 1920 пикселей
Высота : 800 пикселей
Соотношение сторон : 2,40:1
Режим частоты кадров : Постоянный
Частота кадров : 23,976 кадра/сек
Цветовое пространство : YUV
Субдискретизация насыщенности : 4:2:0
Битовая глубина : 8 бит
Тип развёртки : Прогрессивная
Бит/(Пиксели*Кадры) : 0.406
Размер потока : 11,8 Гбайт (76%)
Заголовок : Грань.будущего-Edge.of.Tomorrow.(2014).BDRip.[1080p]
Библиотека кодирования : x264 core 142 r2479kMod dd79a61
Настройки программы : cabac=1 / ref=5 / deblock=1:-3:-3 / analyse=0x3:0x133 / me=umh / subme=10 / psy=1 / fade_compensate=0.00 / psy_rd=1.10:0.00 / mixed_ref=1 / me_range=24 / chroma_me=1 / trellis=2 / 8x8dct=1 / cqm=0 / deadzone=21,11 / fast_pskip=1 / chroma_qp_offset=-2 / threads=24 / lookahead_threads=6 / sliced_threads=0 / nr=0 / decimate=1 / interlaced=0 / bluray_compat=0 / constrained_intra=0 / fgo=0 / bframes=11 / b_pyramid=2 / b_adapt=2 / b_bias=0 / direct=3 / weightb=1 / open_gop=0 / weightp=2 / keyint=230 / keyint_min=23 / scenecut=40 / intra_refresh=0 / rc_lookahead=40 / rc=crf / mbtree=0 / crf=16.7000 / qcomp=0.65 / qpmin=0 / qpmax=69 / qpstep=4 / vbv_maxrate=50000 / vbv_bufsize=62500 / crf_max=0.0 / nal_hrd=none / filler=0 / ip_ratio=1.28 / pb_ratio=1.15 / aq=1:0.77
Язык : English
Default : Да
Forced : Нет
Коэффициенты матрицы : BT.709

Аудио #1
Идентификатор : 2
Формат : AC-3
Формат/Информация : Audio Coding 3
Расширение режима : CM (complete main)
Параметр Endianness формата : Big
Идентификатор кодека : A_AC3
Продолжительность : 1 ч. 53 м.
Вид битрейта : Постоянный
Битрейт : 640 Кбит/сек
Каналы : 6 каналов
Расположение каналов : Front: L C R, Side: L R, LFE
Частота : 48,0 КГц
Битовая глубина : 16 бит
Метод сжатия : С потерями
Размер потока : 520 Мбайт (3%)
Заголовок : AC3 5.1 / 640 kbps / Dub (Blu-ray CEE)
Язык : Russian
Default : Да
Forced : Нет

Аудио #2
Идентификатор : 3
Формат : DTS
Формат/Информация : Digital Theater Systems
Идентификатор кодека : A_DTS
Продолжительность : 1 ч. 53 м.
Вид битрейта : Постоянный
Битрейт : 1510 Кбит/сек
Каналы : 6 каналов
Расположение каналов : Front: L C R, Side: L R, LFE
Частота : 48,0 КГц
Битовая глубина : 24 бит
Метод сжатия : С потерями
Размер потока : 1,20 Гбайт (8%)
Заголовок : DTS 5.1 / 1536 kbps / VO (Дмитрий Есарев)
Язык : Russian
Default : Нет
Forced : Нет

Аудио #3
Идентификатор : 4
Формат : AC-3
Формат/Информация : Audio Coding 3
Расширение режима : CM (complete main)
Параметр Endianness формата : Big
Идентификатор кодека : A_AC3
Продолжительность : 1 ч. 53 м.
Вид битрейта : Постоянный
Битрейт : 640 Кбит/сек
Каналы : 6 каналов
Расположение каналов : Front: L C R, Side: L R, LFE
Частота : 48,0 КГц
Битовая глубина : 16 бит
Метод сжатия : С потерями
Размер потока : 520 Мбайт (3%)
Заголовок : AC3 5.1 / 640 kbps / Dub (Blu-ray CEE)
Язык : Ukrainian
Default : Нет
Forced : Нет

Аудио #4
Идентификатор : 5
Формат : DTS
Формат/Информация : Digital Theater Systems
Идентификатор кодека : A_DTS
Продолжительность : 1 ч. 53 м.
Вид битрейта : Постоянный
Битрейт : 1510 Кбит/сек
Каналы : 6 каналов
Расположение каналов : Front: L C R, Side: L R, LFE
Частота : 48,0 КГц
Битовая глубина : 24 бит
Метод сжатия : С потерями
Размер потока : 1,20 Гбайт (8%)
Заголовок : DTS 5.1 / 1536 kbps / Original
Язык : English
Default : Нет
Forced : Нет

Текст #1
Идентификатор : 6
Формат : UTF-8
Идентификатор кодека : S_TEXT/UTF8
Идентификатор кодека/Информация : UTF-8 Plain Text
Заголовок : Forced
Язык : Russian
Default : Да
Forced : Нет

Текст #2
Идентификатор : 7
Формат : UTF-8
Идентификатор кодека : S_TEXT/UTF8
Идентификатор кодека/Информация : UTF-8 Plain Text
Заголовок : Full
Язык : Russian
Default : Нет
Forced : Нет

Текст #3
Идентификатор : 8
Формат : UTF-8
Идентификатор кодека : S_TEXT/UTF8
Идентификатор кодека/Информация : UTF-8 Plain Text
Заголовок : Full
Язык : Ukrainian
Default : Нет
Forced : Нет

Текст #4
Идентификатор : 9
Формат : UTF-8
Идентификатор кодека : S_TEXT/UTF8
Идентификатор кодека/Информация : UTF-8 Plain Text
Заголовок : Full
Язык : English
Default : Нет
Forced : Нет

Текст #5
Идентификатор : 10
Формат : UTF-8
Идентификатор кодека : S_TEXT/UTF8
Идентификатор кодека/Информация : UTF-8 Plain Text
Заголовок : SDH
Язык : English
Default : Нет
Forced : Нет

Текст #6
Идентификатор : 11
Формат : UTF-8
Идентификатор кодека : S_TEXT/UTF8
Идентификатор кодека/Информация : UTF-8 Plain Text
Заголовок : SDH (Colored)
Язык : English
Default : Нет
Forced : Нет

Меню
00:00:00.000 : en:00:00:00.000
00:10:28.169 : en:00:10:28.169
00:17:39.100 : en:00:17:39.100
00:24:50.197 : en:00:24:50.197
00:35:57.947 : en:00:35:57.947
00:46:27.284 : en:00:46:27.284
00:54:34.771 : en:00:54:34.771
01:04:59.562 : en:01:04:59.562
01:12:53.077 : en:01:12:53.077
01:23:08.901 : en:01:23:08.901
01:32:34.132 : en:01:32:34.132
01:42:53.584 : en:01:42:53.584
01:45:46.215 : en:01:45:46.215
Свернуть
Знаете ли вы, что...
Фильм снят по мотивам романа Хироси Сакурадзаки «Всё, что тебе нужно — это убивать» (All you need is kill, 2004).

Вертолет, который садился на Трафальгарской площади, принадлежит Королевским военно-воздушным силам Великобритании и за его штурвалом сидели профессиональные военные.

В финальные титры не попал сценарист Данте Харпер, который в 2010 году продал сценарий этого фильма студии Warner Bros. за сумму, превышающую 1 миллион долларов.

Первоначально главную роль предлагали Брэду Питту, но тот отклонил предложение.

Беренис Бежо рассматривалась на роль Риты Вратаски.

Том Круз начал заниматься пре-продакшном 20 июля 2012 года, менее чем через неделю после окончания работы над фильмом «Обливион» (2013).

Том Круз потратил более $ 100,000 на вечеринку, посвященную окончанию съемок фильма для актеров и съемочной группы. Сам он на вечеринке не присутствовал, так как в это время заканчивал работу над своими сценами в фильме.

Большая часть съемок фильма проходила на тех же съемочных площадках, где снимались фильмы о Гарри Поттере.

Эмили Блант призналась, что после того, как на нее надели металлический костюм, она расплакалась, потому что он был очень тяжелым (около 38 кг) и ей предстояло 5 месяцев сниматься в нем в экшн-сценах.

В оригинальной истории речь идет о вторжении в Токио. Рита – американка, а Кейдж – японец по имени Кейдзи Кирия, который к концу истории получает прозвище «Killer Cage».

Персонаж Джереми Пивена был добавлен во время повторных съемок, но в итоге все сцены с его участием были вырезаны во время монтажа.

Том Круз был одним из первых людей, узнавший о беременности Эмили Блант. У съемочной группы и актеров был промежуток в несколько месяцев между основными и повторными съемками. В этот период Эмили Блант забеременела. Она решила никому не рассказывать об этом. Срок ее беременности составлял всего несколько недель, когда актрисе нужно было вновь приступить к съемкам. Тома Круза сильно смутил тот факт, что Блант отказалась выполнять свои трюки самостоятельно во время повторных съемок, с учетом того, что в период основных съемок она все делала сама, после чего Блант и рассказала ему о своем положении.

Для съемок картины было изготовлено 70 экзокостюмов в различной комплектации, вес которых составлял от 27 до 57 килограммов.

В начале фильма среди кадров новостных сводок можно увидеть ролик с падением челябинского метеорита в 2013 году, который показан как часть вторжения инопланетян. При чём, эти кадры выдавались, как заснятые на территории Германии, о чём гласит надпись «breaking news: panic as meteor strikes germany» внизу экрана.

Хотя сюжет фильма и укладывается всего в два дня, пусть и повторяющихся многократно, художники создали для съемок 47 съемочных площадок, в том числе гигантский пляж, куда было завезено 1300 тонн песка.

На карте в начале фильма видно, что столица Венгрии — Будапешт, расположена не там, где находится на самом деле.

На карте, которую показывают в начале фильма, Любляна отмечена как столица Хорватии, хотя на самом деле она является столицей Словении.

Во время первого разговора с генералом Бригхэмом, одна из пуговиц на куртке Кейджа расстегнута. В следующем кадре его куртка застегнута на все пуговицы.

В начале фильма голос за кадром говорит: «Они распространились от Гамбурга по всей Европе». Гамбург расположен недалеко от северного побережья Германии, но на карте показывается, что распространение началось откуда-то из центра Европы, около Мюнхена.

Свернуть
Скриншоты
Изображение
Изображение
Изображение
Изображение
Свернуть
Не в сети
Профиль  
 Добавлено: 2014-09-28 12:50 (спустя 1 день 6 часов)
Стаж: 3 года 10 месяцев
Сообщений: 187
Лайков: 61
Неплохое такое кино. :a_g_a:
Не в сети
Профиль  
 Добавлено: 2014-09-28 13:56 (спустя 1 час 6 минут)
Аватара пользователя
Стаж: 8 лет 1 месяц
Возраст: 31
Сообщений: 46
Спасибок: 1
в дтс как перевод? отличается от лицензии?
Не в сети
Профиль  
 Добавлено: 2014-09-28 20:14 (спустя 6 часов)
Аватара пользователя
Стаж: 8 лет 9 месяцев
Сообщений: 1170
Спасибок: 1294
Лайков: 7
вполне) семерочка
Не в сети
Профиль  
 Добавлено: 2014-10-02 21:14 (спустя 4 дня)
Аватара пользователя
Стаж: 8 лет 8 месяцев
Возраст: 36
Сообщений: 319
Спасибок: 620
Лайков: 16
в коллекцию
Не в сети
Профиль  
 Добавлено: 2014-10-03 20:21 (спустя 23 часа)
Аватара пользователя
Стаж: 8 лет 3 месяца
Сообщений: 198
Лайков: 8
Отличная фантастика, с интересом смотрел!
Не в сети
Профиль  
 Добавлено: 2014-11-18 02:05 (спустя 1 месяц 14 дней)
Аватара пользователя
Стаж: 7 лет
Возраст: 42
Сообщений: 39
круче, что-то было в 2014??? ... НЕТ!!! спс
_________________
Изображение
... а, иногда, я играю в WoT, вот... http://www.youtube.com/watch?v=pVGIQzm_eFM !!!
Не в сети
Профиль  
 Добавлено: 2016-05-15 02:14 (спустя 1 год 5 месяцев)
Аватара пользователя
Стаж: 8 лет 1 месяц
Сообщений: 553
Спасибок: 380
Лайков: 20
А почему картинка не 1920х1080 ? :(
Не в сети
Профиль  
Начать новую темуОтветить на тему  [ Сообщений: 8 ] 
Вы не можете начинать темы
Вы не можете отвечать на сообщения
Вы не можете редактировать свои сообщения
Вы не можете удалять свои сообщения