Правила форума

  • В этом разделе создание новых тем Запрещено.
  • Для создания новых тем пользуйтесь Корневым разделом DVD и HD фильмы.
Начать новую темуОтветить на тему  [ Сообщений: 13 ] 
Торрент файл
Размер: 11.33 GB • Зарегистрирован: 2 года 9 месяцев • Статус: Проверено
Скачан: 513 раз • Желающих скачать: 0 • Поблагодарили: 177 раз
 Раздают: 3  |  0 KB/s  ]   Качают: 0  |  0 KB/s  ] 
Сообщения
 Добавлено: 2014-02-07 02:24
DVD Release Group
Аватара пользователя
Стаж: 7 лет 1 месяц
Сообщений: 3559
Спасибок: 247365
Лайков: 1018
Гравитация

Gravity

«Не отпускай»


Изображение


Год выпуска: 2013
Страна: США, Великобритания
Жанр: Фантастика, триллер, драма
Продолжительность: 01:30:58
Перевод: Профессиональный (полное дублирование)
Субтитры: Русские, английские, украинские
Режиссер: Альфонсо Куарон
В ролях: Сандра Буллок, Джордж Клуни, Эд Харрис, Орто Игнатиуссен, Пол Шарма, Эми Уоррен, Башер Саваж
Описание: Доктор Райан Стоун, блестящий специалист в области медицинского инжиниринга, отправляется в свою первую космическую миссию под командованием ветерана астронавтики Мэтта Ковальски, для которого этот полет — последний перед отставкой. Но во время, казалось бы, рутинной работы за бортом случается катастрофа. Шаттл уничтожен, а Стоун и Ковальски остаются совершенно одни; они находятся в связке друг с другом, и все, что они могут, — это двигаться по орбите в абсолютно черном пространстве без всякой связи с Землей и какой-либо надежды на спасение.
Изображение
Дополнительно: Сохранены оригинальные чаптеры
Качество: BDRip 1080p
Формат: MKV
Видео кодек: H.264
Аудио кодек: AC3, DTS
Видео: 1920x800 23.98fps 15425kbps
Аудио:
Аудио Rus: AC3 48kHz 6ch 448kbps
Аудио Ukr: AC3 48kHz 6ch 448kbps
Аудио Eng: DTS 48kHz 6ch 1510kbps
"MediaInfo"
Формат : Matroska
Версия формата : Version 2
Размер файла : 11,3 Гбайт
Продолжительность : 1 ч. 30 м.
Общий поток : 17,8 Мбит/сек
Название фильма : Gravity (2013) - Release for HDCLUB
Дата кодирования : UTC 2014-02-13 22:36:02
Программа кодирования : mkvmerge v3.4.0 ('Rapunzel') built on May 15 2010 09:38:20
Библиотека кодирования : libebml v0.8.0 + libmatroska v0.9.0

Видео
Идентификатор : 1
Формат : AVC
Формат/Информация : Advanced Video Codec
Профиль формата : High@L4.1
Параметр CABAC формата : Да
Параметр ReFrames формата : 5 кадров
Идентификатор кодека : V_MPEG4/ISO/AVC
Продолжительность : 1 ч. 30 м.
Битрейт : 15,1 Мбит/сек
Ширина : 1920 пикселей
Высота : 800 пикселей
Соотношение сторон : 2,40:1
Частота кадров : 23,976 кадра/сек
Цветовое пространство : YUV
Субдискретизация насыщенности : 4:2:0
Битовая глубина : 8 бит
Тип развёртки : Прогрессивная
Бит/(Пиксели*Кадры) : 0.409
Размер потока : 9,58 Гбайт (85%)
Заголовок : Gravity (2013) - Release for HDCLUB
Библиотека кодирования : x264 core 140 r2377kMod 1ca7bb9
Настройки программы : cabac=1 / ref=5 / deblock=1:-3:-3 / analyse=0x3:0x133 / me=umh / subme=10 / psy=1 / fade_compensate=0.00 / psy_rd=1.00:0.00 / mixed_ref=1 / me_range=48 / chroma_me=1 / trellis=2 / 8x8dct=1 / cqm=0 / deadzone=21,11 / fast_pskip=1 / chroma_qp_offset=-2 / threads=12 / lookahead_threads=2 / sliced_threads=0 / nr=0 / decimate=1 / interlaced=0 / bluray_compat=0 / constrained_intra=0 / fgo=0 / bframes=8 / b_pyramid=2 / b_adapt=2 / b_bias=0 / direct=3 / weightb=1 / open_gop=0 / weightp=2 / keyint=250 / keyint_min=23 / scenecut=40 / intra_refresh=0 / rc=crf / mbtree=0 / crf=16.2500 / qcomp=0.60 / qpmin=0 / qpmax=69 / qpstep=4 / ip_ratio=1.30 / pb_ratio=1.20 / aq=1:0.85
Язык : English
Default : Да
Forced : Нет

Аудио #1
Идентификатор : 2
Формат : AC-3
Формат/Информация : Audio Coding 3
Расширение режима : CM (complete main)
Идентификатор кодека : A_AC3
Продолжительность : 1 ч. 30 м.
Вид битрейта : Постоянный
Битрейт : 448 Кбит/сек
Каналы : 6 каналов
Расположение каналов : Front: L C R, Side: L R, LFE
Частота : 48,0 КГц
Битовая глубина : 16 бит
Метод сжатия : С потерями
Размер потока : 292 Мбайт (3%)
Заголовок : AC3 5.1 @ 448 kbps - DUB, Blu-ray CEE
Язык : Russian
Default : Да
Forced : Нет

Аудио #2
Идентификатор : 3
Формат : AC-3
Формат/Информация : Audio Coding 3
Расширение режима : CM (complete main)
Идентификатор кодека : A_AC3
Продолжительность : 1 ч. 30 м.
Вид битрейта : Постоянный
Битрейт : 448 Кбит/сек
Каналы : 6 каналов
Расположение каналов : Front: L C R, Side: L R, LFE
Частота : 48,0 КГц
Битовая глубина : 16 бит
Метод сжатия : С потерями
Размер потока : 292 Мбайт (3%)
Заголовок : AC3 5.1 @ 448 kbps - DUB, Blu-ray CEE
Язык : Ukrainian
Default : Нет
Forced : Нет

Аудио #3
Идентификатор : 4
Формат : DTS
Формат/Информация : Digital Theater Systems
Идентификатор кодека : A_DTS
Продолжительность : 1 ч. 30 м.
Вид битрейта : Постоянный
Битрейт : 1510 Кбит/сек
Каналы : 6 каналов
Расположение каналов : Front: L C R, Side: L R, LFE
Частота : 48,0 КГц
Битовая глубина : 24 бит
Метод сжатия : С потерями
Задержка видео : 11 мс.
Размер потока : 982 Мбайт (8%)
Заголовок : DTS 5.1 @ 1536 kbps
Язык : English
Default : Нет
Forced : Нет

Текст #1
Идентификатор : 5
Формат : UTF-8
Идентификатор кодека : S_TEXT/UTF8
Идентификатор кодека/Информация : UTF-8 Plain Text
Заголовок : Forced, iTunes
Язык : Russian
Default : Да
Forced : Нет

Текст #2
Идентификатор : 6
Формат : UTF-8
Идентификатор кодека : S_TEXT/UTF8
Идентификатор кодека/Информация : UTF-8 Plain Text
Заголовок : iTunes
Язык : Russian
Default : Нет
Forced : Нет

Текст #3
Идентификатор : 7
Формат : UTF-8
Идентификатор кодека : S_TEXT/UTF8
Идентификатор кодека/Информация : UTF-8 Plain Text
Заголовок : iTunes
Язык : Ukrainian
Default : Нет
Forced : Нет

Текст #4
Идентификатор : 8
Формат : UTF-8
Идентификатор кодека : S_TEXT/UTF8
Идентификатор кодека/Информация : UTF-8 Plain Text
Язык : English
Default : Нет
Forced : Нет

Текст #5
Идентификатор : 9
Формат : UTF-8
Идентификатор кодека : S_TEXT/UTF8
Идентификатор кодека/Информация : UTF-8 Plain Text
Заголовок : SDH
Язык : English
Default : Нет
Forced : Нет

Текст #6
Идентификатор : 10
Формат : UTF-8
Идентификатор кодека : S_TEXT/UTF8
Идентификатор кодека/Информация : UTF-8 Plain Text
Заголовок : SDH-COLORED
Язык : English
Default : Нет
Forced : Нет

Меню
00:00:00.000 : en:Chapter 1
00:13:08.830 : en:Chapter 2
00:21:33.542 : en:Chapter 3
00:29:12.668 : en:Chapter 4
00:39:59.856 : en:Chapter 5
00:48:49.051 : en:Chapter 6
00:57:00.667 : en:Chapter 7
01:08:08.418 : en:Chapter 8
01:15:27.148 : en:Chapter 9
01:23:50.567 : en:Chapter 10
Свернуть

"Скриншоты"
Изображение
Изображение
Изображение
Изображение
Изображение
Изображение
Свернуть


Последний раз редактировалось rastor 2014-02-14 16:47, всего редактировалось 3 раз(а).
 riksus нравится это.
Не в сети
Профиль  
 Добавлено: 2014-02-07 07:36 (спустя 5 часов)
Аватара пользователя
Стаж: 9 лет 1 месяц
Сообщений: 8018
Спасибок: 122267
Лайков: 1194
Сцена.
при появлении лучшего будет поглощен
Не в сети
Профиль  
 Добавлено: 2014-02-07 12:04 (спустя 4 часа)
Стаж: 3 года 10 месяцев
Сообщений: 187
Лайков: 61

krazz:

Сцена.
при появлении лучшего будет поглощен
Это как понимать? Что значит сцена? Я понял, что при появлении лучшего будет заменен, а это что не лицензия, перевод другой, никак в лицензии? Не стоит качать, лучше подождать? Объясните пожалуйста не посвященному в этом деле человеку.
Не в сети
Профиль  
 Добавлено: 2014-02-07 12:35 (спустя 30 минут)
Аватара пользователя
Стаж: 9 лет 1 месяц
Сообщений: 8018
Спасибок: 122267
Лайков: 1194
Mib333
Сцен-рип - рип с настройками, ориентированными на быстрое кодирование, а не на качество. Это если кратко.
Это относится только к видео параметрам, со звуком здесь все ок.
Качать или нет, решать Вам. Кого-то устроит и такое качество, кто-то лучше подождет качественный рип
Не в сети
Профиль  
 Добавлено: 2014-02-07 15:52 (спустя 3 часа)
Аватара пользователя
Стаж: 7 лет 8 месяцев
Возраст: 24
Сообщений: 299
Спасибок: 71
Лайков: 2
3д не подскажете когда?
Не в сети
Профиль  
 Добавлено: 2014-02-07 15:54 (спустя 1 минута)
DVD Release Group
Аватара пользователя
Стаж: 7 лет 1 месяц
Сообщений: 3559
Спасибок: 247365
Лайков: 1018
Торрент-файл обновлен на лицензию.
Не в сети
Профиль  
 Добавлено: 2014-02-14 16:30 (спустя 7 дней)
Аватара пользователя
Стаж: 8 лет 3 месяца
Сообщений: 311
Лайков: 17
Скорости поддай!!! :(
_________________
http://www.seosprint.net/?ref=546989
http://www.web-ip.ru/index.php?refwmid=366027222569
http://www.wmmail.ru/index.php?cf=reg-n ... =Manhunt73
http://www.ipgold.ru/?r=Manhunt73
Не в сети
Профиль  
 Добавлено: 2014-02-14 16:43 (спустя 12 минут)
DVD Release Group
Аватара пользователя
Стаж: 7 лет 1 месяц
Сообщений: 3559
Спасибок: 247365
Лайков: 1018

Manhunt73:

Скорости поддай!!! :(
Скажите как - поддам!
Cкрытый текст
Изображение
Свернуть
Не в сети
Профиль  
 Добавлено: 2014-02-14 16:49 (спустя 6 минут)
Аватара пользователя
Стаж: 8 лет 3 месяца
Сообщений: 311
Лайков: 17

rastor:

Manhunt73:

Скорости поддай!!! :(
Скажите как - поддам!
Cкрытый текст
Изображение
Свернуть
Рос-Телеком что-ли? :(
_________________
http://www.seosprint.net/?ref=546989
http://www.web-ip.ru/index.php?refwmid=366027222569
http://www.wmmail.ru/index.php?cf=reg-n ... =Manhunt73
http://www.ipgold.ru/?r=Manhunt73
Не в сети
Профиль  
 Добавлено: 2014-02-14 16:57 (спустя 7 минут)
DVD Release Group
Аватара пользователя
Стаж: 7 лет 1 месяц
Сообщений: 3559
Спасибок: 247365
Лайков: 1018
Manhunt73
Да какая разница.
Отдача 1,2мб/сек. (внешка)
Отдача 10,5мб/сек. (локал)
Не в сети
Профиль  
 Добавлено: 2014-02-15 13:26 (спустя 20 часов)
Аватара пользователя
Стаж: 8 лет 3 месяца
Сообщений: 88
Спасибок: 1007
Лайков: 3
спс, хошорый фильм
_________________
Изображение
Не в сети
Профиль  
 Добавлено: 2014-02-16 22:45 (спустя 1 день 9 часов)
Аватара пользователя
Стаж: 8 лет 9 месяцев
Сообщений: 1170
Спасибок: 1294
Лайков: 7
в целом айс
спойлер, возможно
сцена с возвращением Клуни ваще вытянула фильм
Свернуть
Не в сети
Профиль  
 Добавлено: 2015-01-27 23:18 (спустя 11 месяцев)
Аватара пользователя
Стаж: 8 лет 3 месяца
Возраст: 41
Сообщений: 405
Спасибок: 17
Лайков: 48
Фильм - супер!
И как снято... Ни минуты не сомневаешься в происходящем.
Не в сети
Профиль  
Начать новую темуОтветить на тему  [ Сообщений: 13 ] 
Вы не можете начинать темы
Вы не можете отвечать на сообщения
Вы не можете редактировать свои сообщения
Вы не можете удалять свои сообщения