Правила форума

  • В этом разделе создание новых тем Запрещено.
  • Для создания новых тем пользуйтесь Корневым разделом DVD и HD фильмы.
Начать новую темуОтветить на тему  [ Сообщений: 5 ] 
Торрент файл
Размер: 4.6 GB • Зарегистрирован: 4 года • Статус: Проверено
Скачан: 74 раза • Желающих скачать: 0 • Поблагодарили: 23 раза
 Раздают: 0  |  0 KB/s  ]   Качают: 0  |  0 KB/s  ] 
 Полного источника не было 3 года 1 месяц 
Сообщения
 Добавлено: 2012-12-01 10:43
Аватара пользователя
Стаж: 7 лет 2 месяца
Сообщений: 7167
Спасибок: 82009
Лайков: 2438
Грэбберсы

Grabbers

Изображение


Год выпуска: 2011
Страна: Изображение Великобритания
Слоган: «Напиться, чтобы выжить!»
Жанр: Фантастика, триллер, комедия
Продолжительность: 01:33:49

Режиссёр: Джон Райт
В ролях: Рут Брэдли, Ричард Койл, Лалор Родди, Дэвид Пирс, Рассел Тоуви, Паскаль Скотт, Брона Галлахер, Луис Демпси, Клелия Мерфи
Описание: Когда на уединенном ирландском острове высаживаются кровожадные пришельцы, местные жители к собственной радости выясняют, что успешно бороться с монстрами все-таки можно: для этого необходимо всего лишь… хорошенько надраться и больше не просыхать.


Качество: BDRip, 720p
Формат: MKV
Видео кодек: H264 (AVC)
Аудио кодек: AC3 (Dolby Digital), DTS
Видео: 1 280x544, 23.976 fps, 5 126 Kbps
Аудио #1: 48.0 KHz, 6 ch, 384 Kbps [Профессиональный (дубляж)] Лицензия
Аудио #2: 48.0 KHz, 6 ch, 1 510 Kbps [Оригинальная звуковая дорожка]
Субтитры: Английские
Изображение
Изображение

Скриншоты
Изображение

Изображение

Изображение

Изображение

Изображение

Изображение
Свернуть
Знаете ли Вы, что...
Во время своих туристических походов по миру сценариста Кевина Лехана часто кусали комары, и однажды он услышал городскую легенду о том, что если есть Мармайт (дрожжевая паста богатая витамином В), то это предотвратит укусы комаров. Услышав это, он задался вопросом, страдают ли комары от похмелья после крови пьяных людей. Эта мысль не покидала его до возвращения домой, где он и написал сценарий к фильму, основанный на слогане «напиться, чтобы выжить».
Перед съемками режиссер Джон Райт собрал актеров Ричарда Койла и Рут Брэдли, чтобы как следует выпить, а затем снимал их в опьяненном состоянии. Рут Брэдли обнаружила множество причуд в нетрезвой себе, которые она впоследствии использовала для своей роли.
Фильм снимался во время самой суровой зимы в Ирландии за последние сто лет. Нетипичные метели, штормовые бури, и минусовые температуры постоянно мешали, создавая сложные условия для съемок.
Свернуть
MI
General
Unique ID : 246841617049683180396787042362728288513 (0xB9B3F7578D70D027A9AA90568FCA9101)
Complete name : Грэбберсы(2012).mkv
Format : Matroska
Format version : Version 2
File size : 4.60 GiB
Duration : 1h 33mn
Overall bit rate : 7 019 Kbps
Encoded date : UTC 2012-11-30 17:53:18
Writing application : mkvmerge v5.5.0 ('Healer') built on Apr 6 2012 21:43:24
Writing library : libebml v1.2.3 + libmatroska v1.3.0

Video
ID : 1
Format : AVC
Format/Info : Advanced Video Codec
Format profile : High@L4.0
Format settings, CABAC : Yes
Format settings, ReFrames : 8 frames
Codec ID : V_MPEG4/ISO/AVC
Duration : 1h 33mn
Bit rate : 5 126 Kbps
Width : 1 280 pixels
Height : 544 pixels
Display aspect ratio : 2.35:1
Frame rate : 24.000 fps
Color space : YUV
Chroma subsampling : 4:2:0
Bit depth : 8 bits
Scan type : Progressive
Bits/(Pixel*Frame) : 0.307
Stream size : 3.27 GiB (71%)
Writing library : x264 core 115 r1937 aa21558
Encoding settings : cabac=1 / ref=8 / deblock=1:-1:-1 / analyse=0x3:0x133 / me=umh / subme=7 / psy=1 / psy_rd=1.00:0.10 / mixed_ref=1 / me_range=16 / chroma_me=1 / trellis=2 / 8x8dct=1 / cqm=0 / deadzone=21,11 / fast_pskip=0 / chroma_qp_offset=-3 / threads=6 / sliced_threads=0 / nr=0 / decimate=1 / interlaced=0 / bluray_compat=0 / constrained_intra=0 / bframes=3 / b_pyramid=2 / b_adapt=2 / b_bias=0 / direct=3 / weightb=1 / open_gop=0 / weightp=2 / keyint=250 / keyint_min=23 / scenecut=40 / intra_refresh=0 / rc_lookahead=50 / rc=2pass / mbtree=1 / bitrate=5126 / ratetol=1.0 / qcomp=0.60 / qpmin=0 / qpmax=69 / qpstep=4 / cplxblur=20.0 / qblur=0.5 / ip_ratio=1.40 / aq=1:1.00
Default : Yes
Forced : No

Audio #1
ID : 2
Format : AC-3
Format/Info : Audio Coding 3
Mode extension : CM (complete main)
Format settings, Endianness : Big
Codec ID : A_AC3
Duration : 1h 33mn
Bit rate mode : Constant
Bit rate : 384 Kbps
Channel(s) : 6 channels
Channel positions : Front: L C R, Side: L R, LFE
Sampling rate : 48.0 KHz
Bit depth : 16 bits
Compression mode : Lossy
Delay relative to video : 950ms
Stream size : 258 MiB (5%)
Language : Russian
Default : Yes
Forced : No

Audio #2
ID : 3
Format : DTS
Format/Info : Digital Theater Systems
Codec ID : A_DTS
Duration : 1h 33mn
Bit rate mode : Constant
Bit rate : 1 510 Kbps
Channel(s) : 6 channels
Channel positions : Front: L C R, Side: L R, LFE
Sampling rate : 48.0 KHz
Bit depth : 16 bits
Compression mode : Lossy
Stream size : 1 013 MiB (22%)
Language : English
Default : No
Forced : No

Text
ID : 4
Format : UTF-8
Codec ID : S_TEXT/UTF8
Codec ID/Info : UTF-8 Plain Text
Language : English
Default : No
Forced : No


Свернуть


Последний раз редактировалось di-ys1 2012-12-03 08:12, всего редактировалось 1 раз.
 rotametr нравится это.
Не в сети
Профиль  
 Добавлено: 2012-12-01 10:56 (спустя 13 минут)
Аватара пользователя
Стаж: 4 года 4 месяца
Возраст: 33
Сообщений: 178
Лайков: 3
если верить рекламе... тофильм дожен быть уморным ;;-))) ;;-))) спасибо за релиз :co_ol: :co_ol: скачаю гляну отпишусь.

Добавлено спустя 2 минуты:
di-ys1
зачем с раздачи убегаеш :ni_zia: :ni_zia: :ni_zia: :ni_zia: :ni_zia:
Не в сети
Профиль  
 Добавлено: 2012-12-01 11:00 (спустя 3 минуты)
Аватара пользователя
Стаж: 7 лет 2 месяца
Сообщений: 7167
Спасибок: 82009
Лайков: 2438
mixghjjghjj

не уходил, хешил


:uch_tiv:
Не в сети
Профиль  
 Добавлено: 2012-12-01 11:04 (спустя 3 минуты)
Модератор
Аватара пользователя
Стаж: 6 лет 10 месяцев
Возраст: 33
Сообщений: 5908
Спасибок: 61259
Лайков: 3540
Наверное повтор viewtopic.php?f=1743&t=490654#peerslist - это рип на 720р.
_________________
ИзображениеИзображение Изображение
Изображение
Не в сети
Профиль  
 Добавлено: 2012-12-01 19:44 (спустя 8 часов)
Аватара пользователя
Стаж: 4 года 4 месяца
Возраст: 33
Сообщений: 178
Лайков: 3
;;-))) ;;-))) ;;-))) ;;-))) ;;-))) зачетный фильм :co_ol: :co_ol: :co_ol:
Не в сети
Профиль  
Начать новую темуОтветить на тему  [ Сообщений: 5 ] 
Вы не можете начинать темы
Вы не можете отвечать на сообщения
Вы не можете редактировать свои сообщения
Вы не можете удалять свои сообщения