Правила форума

  • В этом разделе создание новых тем Запрещено.
  • Для создания новых тем пользуйтесь Корневым разделом DVD и HD фильмы.
Начать новую темуОтветить на тему  [ Сообщений: 2 ] 
Торрент файл
Размер: 4.65 GB • Зарегистрирован: 4 года 2 месяца • Статус: Проверено
Скачан: 17 раз • Желающих скачать: 0 • Поблагодарили: 2 раза
 Раздают: 0  |  0 KB/s  ]   Качают: 0  |  0 KB/s  ] 
 Полного источника не было 3 года 2 месяца 
Сообщения
 Добавлено: 2012-09-23 09:38
Книголюб
Аватара пользователя
Стаж: 7 лет 2 месяца
Сообщений: 2823
Спасибок: 48830
Лайков: 73
Грешники и Святые
Sinners and Saints

Изображение


Год выпуска: 2010
Страна: США
Слоган: «Nothing's more dangerous than a man with nothing to lose.»
Жанр: боевик, триллер, криминал
Продолжительность: 1:44:04
Перевод: Профессиональный (многоголосый закадровый)

Режиссёр: Уильям Кауфман
В ролях: Луис Мэндилор, Джонни Стронг, Том Беренджер, Костас Мэндилор, Юрген Прохнов, Метод Мэн, Джолин Блэлок, Ким Коутс, Джессика Хип, Шон Патрик Флэнери
Описание: В беззаконном Новом Орлеане осужденный детектив Шон Райли пытается пережить смерть своего молодого сына и развод жены. Он объединяется с молодым детективом по расследованию убийств Уиллом Гэнзом, чтобы раскрыть ряд зверских убийств, которые погрузили город в войну банд. Двое напарников быстро понимают, что есть кое-что намного более зловещие, чем то, что любой, возможно, когда-либо воображал.
Рейтинг MPAA: Рейтинг R (Подростки до 17 лет допускаются на фильм только в сопровождении одного из родителей)
Мировая премьера: 10 января 2012
Изображение 6.597 494

Качество: BDRip 720p
Формат: MKV
Видео кодек: H264 (AVC)
Аудио кодек: DTS
Видео: 1280x544 23.976fps 4 503 Kbps 0.270Bits/Pixel
Аудио #1: Russian: 48000Hz 6ch 384 kb/s
Аудио #2: English: 48000Hz 6ch 1510 kb/s
MediaInfo
General
Unique ID : 231401544458681542984468132786629274725 (0xAE1650FD4CA8DD938BF594BD1EE06C65)
Complete name : K:\Greshniki.i.Svjatye..mkv
Format : Matroska
Format version : Version 2
File size : 4.65 GiB
Duration : 1h 44mn
Overall bit rate : 6 394 Kbps
Encoded date : UTC 2012-09-20 10:35:49
Writing application : mkvmerge v4.9.1 ('Ich will') сборка от Jul 11 2011 23:53:15
Writing library : libebml v1.2.1 + libmatroska v1.1.1

Video
ID : 1
Format : AVC
Format/Info : Advanced Video Codec
Format profile : High@L3.1
Format settings, CABAC : Yes
Format settings, ReFrames : 5 frames
Codec ID : V_MPEG4/ISO/AVC
Duration : 1h 44mn
Bit rate : 4 503 Kbps
Width : 1 280 pixels
Height : 544 pixels
Display aspect ratio : 2.35:1
Frame rate : 23.976 fps
Color space : YUV
Chroma subsampling : 4:2:0
Bit depth : 8 bits
Scan type : Progressive
Bits/(Pixel*Frame) : 0.270
Stream size : 3.18 GiB (68%)
Title : Sinners.and.Saints.2010.720p.BluRay.x264-SAiMORNY
Writing library : x264 core 115 r1995 c1e60b9
Encoding settings : cabac=1 / ref=5 / deblock=1:0:0 / analyse=0x3:0x133 / me=umh / subme=7 / psy=1 / psy_rd=1.00:0.00 / mixed_ref=1 / me_range=16 / chroma_me=1 / trellis=1 / 8x8dct=1 / cqm=0 / deadzone=21,11 / fast_pskip=0 / chroma_qp_offset=-2 / threads=6 / sliced_threads=0 / nr=0 / decimate=1 / interlaced=0 / bluray_compat=0 / constrained_intra=0 / bframes=3 / b_pyramid=2 / b_adapt=2 / b_bias=0 / direct=3 / weightb=1 / open_gop=0 / weightp=2 / keyint=250 / keyint_min=23 / scenecut=40 / intra_refresh=0 / rc_lookahead=50 / rc=2pass / mbtree=1 / bitrate=4503 / ratetol=1.0 / qcomp=0.60 / qpmin=0 / qpmax=69 / qpstep=4 / cplxblur=20.0 / qblur=0.5 / ip_ratio=1.40 / aq=1:1.00
Language : English
Default : Yes
Forced : Yes

Audio #1
ID : 2
Format : AC-3
Format/Info : Audio Coding 3
Mode extension : CM (complete main)
Codec ID : A_AC3
Duration : 1h 44mn
Bit rate mode : Constant
Bit rate : 384 Kbps
Channel(s) : 6 channels
Channel positions : Front: L C R, Side: L R, LFE
Sampling rate : 48.0 KHz
Bit depth : 16 bits
Compression mode : Lossy
Delay relative to video : 3s 40ms
Stream size : 286 MiB (6%)
Title : DD 5.1 @ 384 kbps - NTV+
Language : Russian
Default : Yes
Forced : Yes

Audio #2
ID : 3
Format : DTS
Format/Info : Digital Theater Systems
Codec ID : A_DTS
Duration : 1h 44mn
Bit rate mode : Constant
Bit rate : 1 510 Kbps
Channel(s) : 6 channels
Channel positions : Front: L C R, Side: L R, LFE
Sampling rate : 48.0 KHz
Bit depth : 24 bits
Compression mode : Lossy
Stream size : 1.10 GiB (24%)
Title : DTS 5.1 @ 1536 kbps
Language : English
Default : No
Forced : No

Text #1
ID : 4
Format : UTF-8
Codec ID : S_TEXT/UTF8
Codec ID/Info : UTF-8 Plain Text
Title : Mokum
Language : Russian
Default : No
Forced : No

Text #2
ID : 5
Format : UTF-8
Codec ID : S_TEXT/UTF8
Codec ID/Info : UTF-8 Plain Text
Language : English
Default : No
Forced : No


Свернуть

Скриншоты
Изображение
Изображение
Изображение
Изображение
Свернуть


Последний раз редактировалось coldun 2012-09-23 16:36, всего редактировалось 1 раз.
Не в сети
Профиль  
 Добавлено: 2012-09-23 16:21 (спустя 6 часов)
Руководитель релиз-группы
Аватара пользователя
Стаж: 7 лет 5 месяцев
Возраст: 31
Сообщений: 3406
Спасибок: 46729
Лайков: 5
coldun
Для DVD и HD-разделов необходимы развернутые технические данные:
Для HD: Отчет BDInfo→ (после нажатия кнопки «scan bitrates» и окончания сканирования) или MediaInfo→ ( весь текст из режима view (вид) → text (текст).) (под спойлером)
Не в сети
Профиль  
Начать новую темуОтветить на тему  [ Сообщений: 2 ] 
Вы не можете начинать темы
Вы не можете отвечать на сообщения
Вы не можете редактировать свои сообщения
Вы не можете удалять свои сообщения