Правила форума

  • В этом разделе создание новых тем Запрещено.
  • Для создания новых тем пользуйтесь Корневым разделом DVD и HD фильмы.
Начать новую темуОтветить на тему  [ Сообщений: 6 ] 
Торрент файл
Размер: 10.01 GB • Зарегистрирован: 4 года • Статус: Проверено
Скачан: 252 раза • Желающих скачать: 0 • Поблагодарили: 53 раза
 Раздают: 0  |  0 KB/s  ]   Качают: 0  |  0 KB/s  ] 
 Полного источника не было 3 месяца 8 дней 
Сообщения
 Добавлено: 2012-12-02 11:15
Top-releaser
Аватара пользователя
Стаж: 8 лет 9 месяцев
Сообщений: 479
Спасибок: 20187
Лайков: 16
Изображение

Изображение

The Campaign


«Хуже нас - лучше нет!»

Год выпуска: 2012
Страна: Изображение США; Everyman Pictures, Gary Sanchez Productions
Жанр: Комедия
Продолжительность: 01:25:29
Перевод: Профессиональный (многоголосый) [Лицензия], Оригинал
Субтитры: Русские, украинские, английские

Режиссёр: Джей Роуч / Jay Roach

В ролях: Уилл Феррелл, Зак Галифианакис, Джейсон Судейкис, Дилан МакДермотт, Кэтрин ЛаНаса, Сара Бэйкер, Джон Литгоу, Дэн Эйкройд, Брайан Кокс, Карен Маруяма, Грант Гудман, Кайя Хэйвуд, Рэндолл Д. Каннингэм, Мэдисон Вульф, Томас Миддлдитч, Джошуа Лосон, Хезер Лоулесс, Джек МакБрайер, Элизабет Дайан Уэллс, Билли Слотер, Аарон Хэнсон, Кейт Лэнг Джонсон, Амелия Джексон-Грэй, Бобби Тисдэйл, П.Дж. Бирн, Патрик Уэверз, Джерри Мэй, Ци Ма, Дэнни Винсон, Джон Д. Ривз, Скотт А. Мартин, Роб Мариано, Майк Мизанин, Рэнди Бачман, Мик Далла-Ви, Марк Лафранс, Брент Ховард Надсен, Чарльз Фредерик Тернер, Дэнни Ханеманн, Джейсон Киркпатрик, Тэрин Террелл

Описание: Два конкурирующих политика Кэм Брэди и Марти Хаггинс, пытаются победить на выборах, чтобы представлять свой небольшой штат Северная Каролина в Палате представителей США. Каждый при этом использует свои методы для достижения наилучшего результата.


Качество: BDRip 1080p R5
Формат: MKV

Видео: MPEG-4 AVC, 14.5 Мбит/с, 1920x1080, 23.976 кадр/с

Аудио 1: AC3 Dolby Digital, 384 Кбит/сек, 6 канала(ов), 48,0 КГц [Многоголосый]
Аудио 2: AC3 Dolby Digital, 384 Кбит/сек, 6 канала(ов), 48,0 КГц [Украинский]
Аудио 3: DTS at 1510 Кбит/сек, 6 канала(ов), 48,0 КГц [Оригинал]
Релиз : Изображение Раздача: Изображение


Изображение
MediaInfo

Общее
Уникальный идентификатор : 226529202019148879125968842583347836498 (0xAA6BEFF5D2341F999C4229D936EC3652)
Полное имя : C:\Users\Домашний\Desktop\Grjaznaja.kampanija.za.chestnye.vybory.2012.BDRip.1080p.[nntt].mkv
Формат : Matroska
Размер файла : 10,0 Гбайт
Продолжительность : 1 ч. 25 м.
Общий поток : 16,8 Мбит/сек
Название фильма : IRONCLUB
Дата кодирования : UTC 2012-12-01 20:23:29
Программа кодирования : mkvmerge v5.0.1 ('Es ist Sommer') built on Oct 24 2011 19:45:06
Библиотека кодирования : libebml v1.2.2 + libmatroska v1.3.0

Видео
Идентификатор : 1
Формат : AVC
Формат/Информация : Advanced Video Codec
Профиль формата : High@L4.1
Параметр CABAC формата : Да
Параметр ReFrames формата : 4 кадры
Идентификатор кодека : V_MPEG4/ISO/AVC
Продолжительность : 1 ч. 25 м.
Битрейт : 14,5 Мбит/сек
Ширина : 1920 пикс.
Высота : 1080 пикс.
Соотношение сторон : 16:9
Частота кадров : 23,976 кадр/сек
Цветовое пространство : YUV
Подвыборка цветности : 4:2:0
Битовая глубина : 8 бит
Тип развёртки : Прогрессивная
Бит/(Пиксели*Кадры) : 0.292
Размер потока : 8,45 Гбайт (84%)
Заголовок : The Campaign 2012 1080p BluRay DTS x264-IRONCLUB
Библиотека кодирования : x264 core 128 r2216kMod 198a7ea
Настройки программы : cabac=1 / ref=4 / deblock=1:-3:-3 / analyse=0x3:0x113 / me=umh / subme=11 / psy=1 / fade_compensate=0.00 / psy_rd=1.10:0.05 / mixed_ref=1 / me_range=48 / chroma_me=1 / trellis=2 / 8x8dct=1 / cqm=0 / deadzone=21,11 / fast_pskip=0 / chroma_qp_offset=-3 / threads=12 / lookahead_threads=2 / sliced_threads=0 / nr=0 / decimate=1 / interlaced=0 / bluray_compat=0 / constrained_intra=0 / bframes=7 / b_pyramid=2 / b_adapt=2 / b_bias=0 / direct=3 / weightb=1 / open_gop=0 / weightp=2 / keyint=250 / keyint_min=23 / scenecut=40 / intra_refresh=0 / rc_lookahead=192 / rc=2pass / mbtree=0 / bitrate=14500 / ratetol=1.0 / qcomp=0.80 / qpmin=0 / qpmax=69 / qpstep=4 / cplxblur=20.0 / qblur=0.5 / vbv_maxrate=50000 / vbv_bufsize=62500 / nal_hrd=none / ip_ratio=1.30 / pb_ratio=1.10 / aq=1:0.85
Язык : English
Коэффициенты матрицы : BT.709-5, BT.1361, IEC 61966-2-4 709, SMPTE RP177

Аудио #1
Идентификатор : 2
Формат : AC-3
Формат/Информация : Audio Coding 3
Расширение режима : CM (complete main)
Идентификатор кодека : A_AC3
Продолжительность : 1 ч. 25 м.
Вид битрейта : Постоянный
Битрейт : 384 Кбит/сек
Канал(ы) : 6 канала(ов)
Расположение каналов : Front: L C R, Side: L R, LFE
Частота : 48,0 КГц
Битовая глубина : 16 бит
Метод сжатия : С потерями
Размер потока : 235 Мбайт (2%)
Заголовок : DD 5.1 @ 384 kbps - MVO, R5
Язык : Russian

Аудио #2
Идентификатор : 3
Формат : AC-3
Формат/Информация : Audio Coding 3
Расширение режима : CM (complete main)
Идентификатор кодека : A_AC3
Продолжительность : 1 ч. 25 м.
Вид битрейта : Постоянный
Битрейт : 384 Кбит/сек
Канал(ы) : 6 канала(ов)
Расположение каналов : Front: L C R, Side: L R, LFE
Частота : 48,0 КГц
Битовая глубина : 16 бит
Метод сжатия : С потерями
Размер потока : 235 Мбайт (2%)
Заголовок : DD 5.1 @ 384 kbps - MVO, R5
Язык : Ukrainian

Аудио #3
Идентификатор : 4
Формат : DTS
Формат/Информация : Digital Theater Systems
Идентификатор кодека : A_DTS
Продолжительность : 1 ч. 25 м.
Вид битрейта : Постоянный
Битрейт : 1510 Кбит/сек
Канал(ы) : 6 канала(ов)
Расположение каналов : Front: L C R, Side: L R, LFE
Частота : 48,0 КГц
Битовая глубина : 24 бит
Метод сжатия : С потерями
Размер потока : 923 Мбайт (9%)
Заголовок : DTS 5.1 @ 1536 kbps
Язык : English

Текст #1
Идентификатор : 5
Формат : UTF-8
Идентификатор кодека : S_TEXT/UTF8
Идентификатор кодека/Информация : UTF-8 Plain Text
Язык : Russian

Текст #2
Идентификатор : 6
Формат : UTF-8
Идентификатор кодека : S_TEXT/UTF8
Идентификатор кодека/Информация : UTF-8 Plain Text
Заголовок : Forced
Язык : Ukrainian

Текст #3
Идентификатор : 7
Формат : UTF-8
Идентификатор кодека : S_TEXT/UTF8
Идентификатор кодека/Информация : UTF-8 Plain Text
Заголовок : SDH
Язык : English

Меню
00:00:00.000 : en:00:00:00.000
00:09:42.582 : en:00:09:42.582
00:20:09.041 : en:00:20:09.041
00:30:22.529 : en:00:30:22.529
00:39:16.771 : en:00:39:16.771
00:48:56.308 : en:00:48:56.308
00:59:52.422 : en:00:59:52.422
01:09:45.431 : en:01:09:45.431
01:20:52.180 : en:01:20:52.180


Свернуть
Скриншоты

Изображение
Изображение
Изображение
Изображение
Изображение
Свернуть
_________________
Изображение
Изображение
Не в сети
Профиль  
 Добавлено: 2012-12-02 11:46 (спустя 31 минута)
Модератор
Аватара пользователя
Стаж: 9 лет
Сообщений: 3446
Спасибок: 1556
Лайков: 77
Норм комедия то?
_________________
Пока тут пусто.
Не в сети
Профиль  
 Добавлено: 2012-12-02 11:58 (спустя 12 минут)
Модератор
Аватара пользователя
Стаж: 6 лет 10 месяцев
Возраст: 33
Сообщений: 5908
Спасибок: 61239
Лайков: 3540
Звук походу с DVD...
_________________
ИзображениеИзображение Изображение
Изображение
Не в сети
Профиль  
 Добавлено: 2012-12-02 22:53 (спустя 10 часов)
Console V.I.P.
Аватара пользователя
Стаж: 9 лет
Сообщений: 1453
Спасибок: 690
Лайков: 12
Если фильм в духе "В доме отца / Casa de mi Padre", то ништяк!
Не в сети
Профиль  
 Добавлено: 2012-12-05 19:45 (спустя 2 дня 20 часов)
Стаж: 8 лет 1 месяц
Сообщений: 11
Спасибок: 4
отпишите, как кино
Не в сети
Профиль  
 Добавлено: 2012-12-06 14:59 (спустя 19 часов)
Console R.G.
Аватара пользователя
Стаж: 8 лет 2 месяца
Возраст: 22
Сообщений: 460
Спасибок: 2125
Лайков: 1
Здесь играет Галифианакис, значит фильм по сути должен быть смешной, поэтому скачаю :co_ol:
Не в сети
Профиль  
Начать новую темуОтветить на тему  [ Сообщений: 6 ] 
Вы не можете начинать темы
Вы не можете отвечать на сообщения
Вы не можете редактировать свои сообщения
Вы не можете удалять свои сообщения