Правила форума

  • В этом разделе создание новых тем Запрещено.
  • Для создания новых тем пользуйтесь Корневым разделом DVD и HD фильмы.
Начать новую темуОтветить на тему  [ 1 сообщение ] 
Торрент файл
Размер: 5.54 GB • Зарегистрирован: 4 года • Статус: Проверено
Скачан: 49 раз • Желающих скачать: 0 • Поблагодарили: 16 раз
 Раздают: 0  |  0 KB/s  ]   Качают: 0  |  0 KB/s  ] 
 Полного источника не было 1 год 5 месяцев 
Сообщения
 Добавлено: 2012-12-02 17:03
Аватара пользователя
Стаж: 7 лет 2 месяца
Сообщений: 7167
Спасибок: 82018
Лайков: 2438
Грязная кампания за честные выборы

The Campaign

Изображение


Год выпуска: 2012
Страна: Изображение США
Слоган: «Хуже нас - лучше нет!»
Жанр: Комедия
Продолжительность: 01:25:29

Режиссёр: Джей Роуч
В ролях: Уилл Феррелл, Зэк Галифианакис, Джейсон Судейкис, Дилан МакДермотт, Кэтрин ЛаНаса, Сала Бэйкер, Джон Литгоу, Дэн Эйкройд, Брайан Кокс, Карен Маруяма, Грант Гудман, Джошуа Лоусон, Хезер Лоулесс
Описание: Два конкурирующих политика Кэм Брэди и Марти Хаггинс, пытаются победить на выборах, чтобы представлять свой небольшой штат Северная Каролина в Палате представителей США. Каждый при этом использует свои методы для достижения наилучшего результата.


Качество: BDRip 720p
Формат: MKV
Видео кодек: H264 (AVC), DTS
Аудио кодек: AC3 (Dolby Digital)
Видео: 1 280 x 720, 23.976 fps,6 809 Kbps
Аудио #1: 48.0 KHz, 6 ch, 384 Kbps [Профессиональный (многоголосый закадровый)] Лицензия
Аудио #2: 48.0 KHz, 6 ch, 384 Kbps [Профессиональный (многоголосый закадровый)] Украинский
Аудио #3: 48.0 KHz, 6 ch, 1 510 Kbps [Оригинальная звуковая дорожка]
Субтитры: Русский, Английский, Украинский
Изображение
Изображение

Скриншоты
Изображение

Изображение

Изображение

Изображение

Изображение

Изображение

Изображение

Изображение
Свернуть
Знаете ли Вы, что...
У Зака Галифианакиса есть дядя, который был конгрессменом в Северной Каролине. Именно там разворачиваются действия фильма. Сам Галифианакис на самом деле родился там же, в Северной Каролине.
Была снята сцена с рестлером Майком Мизанином, где он представляет Кэма Брэди (Уилл Феррелл), но ближе к премьере фильма ее удалили. Однако остались сцены, где его можно видеть на заднем плане.
Несмотря на то что в сцене, где Брэди появляется в «Сегодня вечером у Пьерса Моргана» (2011), выявляется, что его поддерживает табачная компания, которую показывали во многих трейлерах, эта сцена была удалена из фильма.
Несмотря на то что на постере к фильму изображены два главных героя, столкнувшиеся лицом к лицу, а на заднем плане Капитолийский холм (Вашингтон, округ Колумбия), действие почти всего фильма проходит в Северной Каролине и ее окрестностях, где живут и проводят избирательную кампанию главные герои. Есть только одна сцена в конгрессе, да и та идет после титров.
Все сигареты, которые курят персонажи фильма, — это Newport, которые производятся табачной компанией Lorillard в Гринсборо, Северная Каролина.
На машине, припаркованной перед домашним хозяйством Хаггинсов, есть табличка с номером GEN-0101. Это намек на первый стих Библии («В начале сотворил Бог небо и землю»).
В сцене во время финальных титров, когда Марти Хаггинс (Зак Галифианакис) упоминает псевдонимы, используемые Тимом Уоттли (Дилан МакДермотт), одно из произнесенных им имен — Дермот Малруни. В реальной жизни МакДермотта иногда путают с Малруни из-за сходства их имен.
Меняется размер флага США, приколотого к лацкану пиджака Кэма Брэди. Когда он начинает путаться во время опроса, флаг растет и становится не менее чем в четыре-пять раз больше, чем был.
Хотя менеджеры кампании Марти предлагают шоколадного лабрадора и золотистого ретривера как американских собак, эти породы были выведены в Канаде и Великобритании соответственно.
Хотя и нет очевидных доказательств, но, вероятно, братья Мотх созданы по образу реальных братьев Кох. Дэвид Х. Кох и Чарльз Г. Кох оказывают большую поддержку консервативной политике и информационно-пропагандистским группам в США.
На вечеринке, где были выявлены результаты выборов, на столе перед Марти есть флаг. Он то лежит абсолютно ровно, то на нем появляется складка, а затем он опять ровный. При этом его не трогали ни Марти, ни его жена.
Когда Тим Уоттли разговаривает с Марти, после того как его оторвали от времяпрепровождения с семьей и отправили его детей в их комнату, мы видим, как Митси уходит от них по коридору. Однако в следующем кадре она снова рядом с Марти.
В самом начале фильма фраза («У войны есть правила. У борьбы в грязи есть правила. У политики нет правил») на экране приписывается Россу Перо как кандидату в президенты 1988 года. Перо баллотировался на пост президента дважды: в первый раз в 1992 году, затем снова в 1996 году, когда он и произнес фразу, использованную в фильме.
Когда Кэм Брэди пытается переспать с Митси Хаггинс, он устанавливает iPhone, чтобы записать это и затем использовать. Если посмотреть на нижнюю иконку на экране, которая открывает фотографии, на ней миниатюрная картинка Кэма и Митси, уже сидящих вместе. Вероятно, она из неудачного дубля и попала туда, потому что забыли удалить предыдущую попытку записи.
После того как Кэма арестовали, репортер подходит к нему и спрашивает: «Вам были предъявлены обвинения в вождении в нетрезвом виде. Правда ли, что содержание алкоголя в крови у вас составило 1,4 промили?». При таком содержании алкоголя в крови очень вероятен летальный исход, и Кэм был бы госпитализирован. Возможно это просто оговорка и хотели сказать 0,14, что выше предельно допустимой нормы во всех штатах и выглядело бы более правдоподобно.
Свернуть
MI
General
Unique ID : 221728765727037255688975237219709363167 (0xA6CF682D84FD722484E5CD908FA423DF)
Complete name : Грязная кампания за честные выборы(2012).mkv
Format : Matroska
Format version : Version 2
File size : 5.54 GiB
Duration : 1h 25mn
Overall bit rate : 9 272 Kbps
Movie name : IRONCLUB
Encoded date : UTC 2012-12-01 20:09:13
Writing application : mkvmerge v5.0.1 ('Es ist Sommer') built on Oct 24 2011 19:45:06
Writing library : libebml v1.2.2 + libmatroska v1.3.0

Video
ID : 1
Format : AVC
Format/Info : Advanced Video Codec
Format profile : High@L4.1
Format settings, CABAC : Yes
Format settings, ReFrames : 9 frames
Codec ID : V_MPEG4/ISO/AVC
Duration : 1h 25mn
Bit rate : 7 000 Kbps
Width : 1 280 pixels
Height : 720 pixels
Display aspect ratio : 16:9
Frame rate : 23.976 fps
Color space : YUV
Chroma subsampling : 4:2:0
Bit depth : 8 bits
Scan type : Progressive
Bits/(Pixel*Frame) : 0.317
Stream size : 4.07 GiB (73%)
Title : The Campaign 2012 720p BluRay DTS x264
Writing library : x264 core 128 r2216kMod 198a7ea
Encoding settings : cabac=1 / ref=9 / deblock=1:-3:-3 / analyse=0x3:0x113 / me=tesa / subme=11 / psy=1 / fade_compensate=0.00 / psy_rd=1.20:0.00 / mixed_ref=1 / me_range=32 / chroma_me=1 / trellis=2 / 8x8dct=1 / cqm=0 / deadzone=21,11 / fast_pskip=0 / chroma_qp_offset=-2 / threads=12 / lookahead_threads=2 / sliced_threads=0 / nr=0 / decimate=1 / interlaced=0 / bluray_compat=0 / constrained_intra=0 / bframes=7 / b_pyramid=2 / b_adapt=2 / b_bias=0 / direct=3 / weightb=1 / open_gop=0 / weightp=2 / keyint=250 / keyint_min=23 / scenecut=40 / intra_refresh=0 / rc_lookahead=60 / rc=2pass / mbtree=0 / bitrate=7000 / ratetol=1.0 / qcomp=0.75 / qpmin=0 / qpmax=69 / qpstep=4 / cplxblur=20.0 / qblur=0.5 / vbv_maxrate=50000 / vbv_bufsize=62500 / nal_hrd=none / ip_ratio=1.30 / pb_ratio=1.20 / aq=1:0.85
Language : English
Default : Yes
Forced : Yes
Matrix coefficients : BT.709-5, BT.1361, IEC 61966-2-4 709, SMPTE RP177

Audio #1
ID : 2
Format : AC-3
Format/Info : Audio Coding 3
Mode extension : CM (complete main)
Format settings, Endianness : Big
Codec ID : A_AC3
Duration : 1h 25mn
Bit rate mode : Constant
Bit rate : 384 Kbps
Channel(s) : 6 channels
Channel positions : Front: L C R, Side: L R, LFE
Sampling rate : 48.0 KHz
Bit depth : 16 bits
Compression mode : Lossy
Stream size : 235 MiB (4%)
Title : DD 5.1 @ 384 kbps - MVO, R5
Language : Russian
Default : Yes
Forced : Yes

Audio #2
ID : 3
Format : AC-3
Format/Info : Audio Coding 3
Mode extension : CM (complete main)
Format settings, Endianness : Big
Codec ID : A_AC3
Duration : 1h 25mn
Bit rate mode : Constant
Bit rate : 384 Kbps
Channel(s) : 6 channels
Channel positions : Front: L C R, Side: L R, LFE
Sampling rate : 48.0 KHz
Bit depth : 16 bits
Compression mode : Lossy
Stream size : 235 MiB (4%)
Title : DD 5.1 @ 384 kbps - MVO, R5
Language : Ukrainian
Default : No
Forced : No

Audio #3
ID : 4
Format : DTS
Format/Info : Digital Theater Systems
Codec ID : A_DTS
Duration : 1h 25mn
Bit rate mode : Constant
Bit rate : 1 510 Kbps
Channel(s) : 6 channels
Channel positions : Front: L C R, Side: L R, LFE
Sampling rate : 48.0 KHz
Bit depth : 24 bits
Compression mode : Lossy
Stream size : 923 MiB (16%)
Title : DTS 5.1 @ 1536 kbps
Language : English
Default : No
Forced : No

Text #1
ID : 5
Format : UTF-8
Codec ID : S_TEXT/UTF8
Codec ID/Info : UTF-8 Plain Text
Language : Russian
Default : No
Forced : No

Text #2
ID : 6
Format : UTF-8
Codec ID : S_TEXT/UTF8
Codec ID/Info : UTF-8 Plain Text
Title : Forced
Language : Ukrainian
Default : No
Forced : No

Text #3
ID : 7
Format : UTF-8
Codec ID : S_TEXT/UTF8
Codec ID/Info : UTF-8 Plain Text
Title : SDH
Language : English
Default : No
Forced : No

Menu
00:00:00.000 : en:00:00:00.000
00:09:42.582 : en:00:09:42.582
00:20:09.041 : en:00:20:09.041
00:30:22.529 : en:00:30:22.529
00:39:16.771 : en:00:39:16.771
00:48:56.308 : en:00:48:56.308
00:59:52.422 : en:00:59:52.422
01:09:45.431 : en:01:09:45.431
01:20:52.180 : en:01:20:52.180


Свернуть

Изображение
 rotametr нравится это.
Не в сети
Профиль  
Начать новую темуОтветить на тему  [ 1 сообщение ] 
Вы не можете начинать темы
Вы не можете отвечать на сообщения
Вы не можете редактировать свои сообщения
Вы не можете удалять свои сообщения