Правила форума

  • В этом разделе создание новых тем Запрещено.
  • Для создания новых тем пользуйтесь Корневым разделом DVD и HD фильмы.
Начать новую темуОтветить на тему  [ 1 сообщение ] 
Торрент файл
Размер: 7.9 GB • Зарегистрирован: 4 года 6 месяцев • Статус: Проверено
Скачан: 20 раз • Желающих скачать: 0 • Поблагодарили: 8 раз
 Раздают: 0  |  0 KB/s  ]   Качают: 0  |  0 KB/s  ] 
 Полного источника не было 1 год 10 месяцев 
Сообщения
 Добавлено: 2012-06-02 18:27
Инквизитор
Аватара пользователя
Стаж: 8 лет 8 месяцев
Сообщений: 3753
Спасибок: 28360
Лайков: 9
Изображение

Грязные прелести / Dirty Pretty Things


Год выпуска: 2002
Страна: Великобритания
Слоган: «Every dream has its price.»
Жанр: триллер, драма, криминал
Продолжительность: 01:37:02
Перевод: Оригинальный, Профессиональный (одноголосый, Е.Рудой), Профессиональный (двухголосый), Профессиональный (многоголосый, закадровый), Профессиональный (полное дублирование)
Режиссер: Стивен Фрирз
Сценарий: Стивен Найт
Продюсер: Роберт Джонс, Трэйси Сиуорд, Джули Голдштейн
Оператор: Крис Менгис
Композитор: Натан Ларсон
В ролях: Одри Тоту, Чивител Эджофор, Серхи Лопес, Софи Оконедо, Бенедикт Вонг, Kenan , Hudaverdi, Дэймон Янгер, Пол Бхаттачарджи, Даррелл Д’Силва, Сотиги Куяте
Бюджет: $10 000 000
Сборы в США: $8 112 414
Сборы в России: $267 769
Сборы в мире: $13 904 766
Описание: Подпольный мир Лондона. Здесь все продается и покупается. Молодой человек и девушка работают в одном отеле, очаге преступной деятельности.
Они практически незнакомы до того момента, пока один из них не делает леденящее душу открытие. Герои не могут сообщить об этом ни коррумпированному боссу, ни полиции. Они будут счастливы, если им удастся остаться в живых.

Изображение
MPAA:
Мировая премьера: 5 сентября 2002
Релиз на DVD: 30 октября 2008, «Мьюзик-Трейд»
Релиз, раздача группы: Изображение, Изображение
Качество: BDRip, 720p
Формат: Matroska
Видео: AVC; 1280x694 (16:9); 8695 Kbps; 24 fps; 0,408 bit/pixel
Аудио №1: Russian; AC3; 384 Kbps; CBR; 6 ch
Аудио №2: Russian; AC3; 448 Kbps; CBR; 6 ch
Аудио №3: Russian; AC3; 384 Kbps; CBR; 6 ch
Аудио №4: Russian; DTS; 754 Kbps; CBR; 6 ch; 24 bit
Аудио №5: DTS; 754 Kbps; CBR; 6 ch; 24 bit

Субтитры №1: Russian
Субтитры №2: Russian
Субтитры №3: English

M.I.
Общее
Уникальный идентификатор                 : 239252474129746675156648383167029377528 (0xB3FE59B517FF42FA97D577ECAFF0F9F8)
Полное имя                               : E:\Фильмы\Dirty.Pretty.Things.2002.720p.BluRay.4xRus.Eng.HDCLUB-Skazhutin.mkv
Формат                                   : Matroska
Версия формата                           : Version 2
Размер файла                             : 7,90 Гбайт
Продолжительность                        : 1 ч. 37 м.
Общий поток                              : 11,7 Мбит/сек
Название фильма                          : Dirty Pretty Things (2002) - Release for HDCLUB by Skazhutin
Дата кодирования                         : UTC 2012-05-28 07:03:19
Программа кодирования                    : mkvmerge v5.6.0 ('Kenya Kane') built on May 27 2012 16:44:04
Библиотека кодирования                   : libebml v1.2.3 + libmatroska v1.3.0
Attachment                               : Yes / Yes

Видео
Идентификатор                            : 1
Формат                                   : AVC
Формат/Информация                        : Advanced Video Codec
Профиль формата                          : High@L4.1
Параметр CABAC формата                   : Да
Параметр ReFrames формата                : 9 кадров
Идентификатор кодека                     : V_MPEG4/ISO/AVC
Продолжительность                        : 1 ч. 37 м.
Битрейт                                  : 8695 Кбит/сек
Ширина                                   : 1280 пикселей
Высота                                   : 694 пикселя
Соотношение сторон                       : 16:9
Частота кадров                           : 24,000 кадра/сек
Цветовое пространство                    : YUV
Субдискретизация насыщенности            : 4:2:0
Битовая глубина                          : 8 бит
Тип развёртки                            : Прогрессивная
Бит/(Пиксели*Кадры)                      : 0.408
Размер потока                            : 5,89 Гбайт (75%)
Заголовок                                : Release for HDCLUB
Библиотека кодирования                   : x264 core 125 r2200kMod 999b753
Настройки программы                      : cabac=1 / ref=9 / deblock=1:-3:-3 / analyse=0x3:0x113 / me=umh / subme=11 / psy=1 / fade_compensate=0.00 / psy_rd=0.90:0.00 / mixed_ref=1 / me_range=48 / chroma_me=1 / trellis=2 / 8x8dct=1 / cqm=0 / deadzone=21,11 / fast_pskip=1 / chroma_qp_offset=-2 / threads=12 / lookahead_threads=2 / sliced_threads=0 / nr=0 / decimate=1 / interlaced=0 / bluray_compat=0 / constrained_intra=0 / bframes=12 / b_pyramid=2 / b_adapt=2 / b_bias=0 / direct=1 / weightb=1 / open_gop=0 / weightp=2 / keyint=250 / keyint_min=24 / scenecut=40 / intra_refresh=0 / rc_lookahead=60 / rc=crf / mbtree=1 / crf=17.5000 / qcomp=0.80 / qpmin=0 / qpmax=69 / qpstep=4 / vbv_maxrate=50000 / vbv_bufsize=62500 / crf_max=0.0 / nal_hrd=none / ip_ratio=1.15 / aq=2:0.80
Язык                                     : English
Default                                  : Да
Forced                                   : Нет
Коэффициенты матрицы                     : BT.709-5, BT.1361, IEC 61966-2-4 709, SMPTE RP177

Аудио #1
Идентификатор                            : 2
Формат                                   : AC-3
Формат/Информация                        : Audio Coding 3
Расширение режима                        : CM (complete main)
Идентификатор кодека                     : A_AC3
Продолжительность                        : 1 ч. 37 м.
Вид битрейта                             : Постоянный
Битрейт                                  : 384 Кбит/сек
Каналы                                   : 6 каналов
Расположение каналов                     : Front: L C R, Side: L R, LFE
Частота                                  : 48,0 КГц
Битовая глубина                          : 16 бит
Метод сжатия                             : С потерями
Размер потока                            : 267 Мбайт (3%)
Заголовок                                : AC3 5.1 @ 384 kbps - Дублированный, R5
Язык                                     : Russian
Default                                  : Да
Forced                                   : Нет

Аудио #2
Идентификатор                            : 3
Формат                                   : AC-3
Формат/Информация                        : Audio Coding 3
Расширение режима                        : CM (complete main)
Идентификатор кодека                     : A_AC3
Продолжительность                        : 1 ч. 37 м.
Вид битрейта                             : Постоянный
Битрейт                                  : 448 Кбит/сек
Каналы                                   : 6 каналов
Расположение каналов                     : Front: L C R, Side: L R, LFE
Частота                                  : 48,0 КГц
Битовая глубина                          : 16 бит
Метод сжатия                             : С потерями
Размер потока                            : 311 Мбайт (4%)
Заголовок                                : AC3 5.1 @ 448 kbps - Многоголосый
Язык                                     : Russian
Default                                  : Нет
Forced                                   : Нет

Аудио #3
Идентификатор                            : 4
Формат                                   : AC-3
Формат/Информация                        : Audio Coding 3
Расширение режима                        : CM (complete main)
Идентификатор кодека                     : A_AC3
Продолжительность                        : 1 ч. 37 м.
Вид битрейта                             : Постоянный
Битрейт                                  : 384 Кбит/сек
Каналы                                   : 6 каналов
Расположение каналов                     : Front: L C R, Side: L R, LFE
Частота                                  : 48,0 КГц
Битовая глубина                          : 16 бит
Метод сжатия                             : С потерями
Размер потока                            : 267 Мбайт (3%)
Заголовок                                : AC3 5.1 @ 384 kbps - Двухголосый, DDV
Язык                                     : Russian
Default                                  : Нет
Forced                                   : Нет

Аудио #4
Идентификатор                            : 5
Формат                                   : DTS
Формат/Информация                        : Digital Theater Systems
Идентификатор кодека                     : A_DTS
Продолжительность                        : 1 ч. 37 м.
Вид битрейта                             : Постоянный
Битрейт                                  : 755 Кбит/сек
Каналы                                   : 6 каналов
Расположение каналов                     : Front: L C R, Side: L R, LFE
Частота                                  : 48,0 КГц
Битовая глубина                          : 24 бит
Метод сжатия                             : С потерями
Размер потока                            : 524 Мбайт (6%)
Заголовок                                : DTS 5.1 @ 768 kbps - Одноголосый, Е. Рудой
Язык                                     : Russian
Default                                  : Нет
Forced                                   : Нет

Аудио #5
Идентификатор                            : 6
Формат                                   : DTS
Формат/Информация                        : Digital Theater Systems
Идентификатор кодека                     : A_DTS
Продолжительность                        : 1 ч. 37 м.
Вид битрейта                             : Постоянный
Битрейт                                  : 755 Кбит/сек
Каналы                                   : 6 каналов
Расположение каналов                     : Front: L C R, Side: L R, LFE
Частота                                  : 48,0 КГц
Битовая глубина                          : 24 бит
Метод сжатия                             : С потерями
Размер потока                            : 524 Мбайт (6%)
Заголовок                                : DTS 5.1 @ 768 kbps
Язык                                     : English
Default                                  : Нет
Forced                                   : Нет

Текст #1
Идентификатор                            : 7
Формат                                   : UTF-8
Идентификатор кодека                     : S_TEXT/UTF8
Идентификатор кодека/Информация          : UTF-8 Plain Text
Заголовок                                : R5
Язык                                     : Russian
Default                                  : Нет
Forced                                   : Нет

Текст #2
Идентификатор                            : 8
Формат                                   : UTF-8
Идентификатор кодека                     : S_TEXT/UTF8
Идентификатор кодека/Информация          : UTF-8 Plain Text
Язык                                     : Russian
Default                                  : Нет
Forced                                   : Нет

Текст #3
Идентификатор                            : 9
Формат                                   : UTF-8
Идентификатор кодека                     : S_TEXT/UTF8
Идентификатор кодека/Информация          : UTF-8 Plain Text
Язык                                     : English
Default                                  : Нет
Forced                                   : Нет

Меню
00:00:00.000                             : en:Chapter 1
00:05:21.107                             : en:Chapter 2
00:12:14.107                             : en:Chapter 3
00:17:36.108                             : en:Chapter 4
00:23:10.400                             : en:Chapter 5
00:28:37.108                             : en:Chapter 6
00:34:19.108                             : en:Chapter 7
00:39:38.942                             : en:Chapter 8
00:44:51.608                             : en:Chapter 9
00:51:16.067                             : en:Chapter 10
00:57:55.608                             : en:Chapter 11
01:04:19.817                             : en:Chapter 12
01:08:30.067                             : en:Chapter 13
01:14:54.192                             : en:Chapter 14
01:22:54.024                             : en:Chapter 15
Свернуть
Скриншоты

Изображение
Изображение
Изображение
Изображение
Изображение
Свернуть

http://nnportal.org/
Не в сети
Профиль  
Начать новую темуОтветить на тему  [ 1 сообщение ] 
Вы не можете начинать темы
Вы не можете отвечать на сообщения
Вы не можете редактировать свои сообщения
Вы не можете удалять свои сообщения