Правила форума

  • В этом разделе создание новых тем Запрещено.
  • Для создания новых тем пользуйтесь Корневым разделом DVD и HD фильмы.
Начать новую темуОтветить на тему  [ 1 сообщение ] 
Торрент файл
Размер: 8.17 GB • Зарегистрирован: 3 года 10 месяцев • Статус: Проверено
Скачан: 14 раз • Желающих скачать: 0 • Поблагодарили: 9 раз
 Раздают: 0  |  0 KB/s  ]   Качают: 0  |  0 KB/s  ] 
 Полного источника не было 2 года 9 месяцев 
Сообщения
 Добавлено: 2013-02-08 11:00
Модератор
Аватара пользователя
Стаж: 5 лет 8 месяцев
Сообщений: 6281
Спасибок: 17335
Лайков: 1633
Изображение

Грязные танцы
Dirty Dancing

«Танцуй в ритме сердца»
Год выпуска: 1987
Страна: Изображение США
Жанр: мелодрама, драма
Продолжительность: 01:40:12
Перевод: Профессиональный многоголосый + Авторский (Живов Юрий) + Оригинал + Субтитры (русские, английские)
Режиссер: Эмиль Ардолино
Сценарий: Элинор Бергстин
Продюсер: Линда Готтлиб, Доро Бахрах, Элинор Бергстин
Оператор: Джеф Джёр
Композитор: Джон Моррис
В ролях: Дженнифер Грэй (Frances 'Baby' Houseman), Патрик Суэйзи (Johnny Castle), Джерри Орбак (Dr. Jake Houseman), Синтия Роудс (Penny Johnson), Джек Уэстон (Max Kellerman), Джейн Брукер (Lisa Houseman), Келли Бишоп (Marjorie Houseman), Лонни Прайс (Neil Kellerman), Макс Кэнтор (Robbie Gould), Чарльз `Хони` Коулз (Tito Suarez), Нил Джонс (Billy Kostecki), 'Cousin Brucie' Morrow (Magician)
Описание: Лето 1963 года. 17-летняя Фрэнсис по прозвищу Бэби, невинная избалованная девушка из обеспеченной семьи, проводит каникулы с родителями в курортном отеле. Она знакомится с Джонни, красивым профессиональным танцором, искушенным в вопросах жизни и любви.
Словно околдованная сексуальными ритмами и ничем не сдерживаемыми движениями «грязных танцев» в стиле ритм-энд-блюз, Бэби становится ученицей-партнершей Джонни - и в танцах и в любви.
Изображение Изображение
Доп. информация
Бюджет: $6 000 000
Сборы в мире: $213 954 274
Сборы в США: $63 954 274
Мировая премьера: 12 мая 1987
Рейтинг PG-13 — Parents strongly cautioned. Дети до 13 лет допускаются на фильм только с родителями
Изображение
Настоятельное предостережение родителям. Некоторый материал может быть неподходящим для детей до 13 лет. Данный рейтинг показывает, что оценённый фильм может быть неподходящим для детей. Родители должны быть особенно осторожны, разрешая своим маленьким детям просмотр. Грубое или продолжительное насилие отсутствует; сексуальная ориентация на наготу отсутствует; некоторые сцены употребления наркотиков могут присутствовать; можно услышать единичные употребления грубой сексуальной лексики.
Свернуть
Свернуть
Награды и премии
Приз «Независимый дух» за дебют, премия «Аманда» за лучший иностранный фильм в Норвегии.

Изображение
Оскар, 1988 год
Победитель (1):
* Лучшая песня — «(I've Had) The Time of My Life»



Изображение
Золотой глобус, 1988 год
Победитель (1):
* Лучшая песня — «(I've Had) The Time of My Life»
Номинации (3):
* Лучший фильм (комедия или мюзикл)
* Лучшая мужская роль (комедия или мюзикл) (Патрик Суэйзи)
* Лучшая женская роль (комедия или мюзикл) (Дженнифер Грей)
Свернуть
Знаете ли вы, что...
* Cцена, где Джонни и Бэйби ползут по полу навстречу друг другу не планировалась в фильме. Актёры просто дурачились и разминались перед съёмками танцевального номера, но режиссёру так понравились эти кадры что их решили оставить в фильме.
* Фильм снимался летом, но сцена с поддержкой снималась в октябре. Так как листья на деревьях уже поменяли цвет, съёмочной команде пришлось красить листья на заднем плане, и если хорошенько приглядеться, то можно заметить несколько пропущенных мест.
Свернуть
Рецензия (Сергей Кудрявцев)
Музыкально-танцевальная ретро-мелодрама

Этот американский фильм стал настоящим сюрпризом сезона 1987 года. Явно непримечательная по сюжету и дешёвая по затратам картина попала в число рекордсменов проката не только в США, но и далеко за пределами Америки, в итоге превзойдя свой бюджет почти в 36 раз! По всей видимости, такому успеху способствовала ностальгия многих людей, где бы они ни находились, по безвозвратно ушедшей эпохе иллюзий и надежд начала 60-х годов. Знаменательно точное определение времени действия: лето 1963 года, за несколько месяцев до убийства Джона Кеннеди и ещё до триумфального завоевания Америки группой «Битлз». Вроде бы несопоставимые события уравнены, но в этом нет ничего кощунственного. За гибелью президента последовали бурные политические потрясения, а бунт молодёжи 60-х годов как раз проходил под знаком «битломании».
В ленте «Грязные танцы» (а таковыми называли излишне откровенные по тем временам хореографические начинания юных танцоров, подражавших латиноамериканцам) воспроизведён несколько наивный период «ритм-энд-блюза», но многие прежние мелодии кажутся песнями в стиле «диско» конца 70-х или же поп-музыки 80-х годов. Не случайно, что написанные специально для фильма музыкальные номера тоже не выделяются из общего стиля. Всё возвращается — и новое оказывается давно знакомым. Вот и картина дебютировавшего в большом кино 44-летнего режиссёра Эмиля Ардолино (прежде он снимал документальные работы о танцах и телевизионные игровые ленты), пожалуй, построена в расчёте на эффект своего рода узнавания и припоминания.
В частности, американские зрители воспринимали поведанное сквозь призму целой группы кинопроизведений о начале 60-х годов («Американские граффити», «Изгои», «Бойцовая рыбка» и т. д.), также замечая явную перекличку с популярной «Лихорадкой в субботу вечером». А без всего этого контекста фильм Ардолино остался бы довольно заурядной историей девушки Фрэнсис по прозвищу Крошка, которая принадлежит к обеспеченной семье, а влюбилась в летнем доме отдыха в бедного, но красивого танцора Джонни Касла. Кстати, исполнитель этой роли Пэтрик Суэйзи, сам в молодости профессионально занимавшийся танцами, сразу стал по итогам опроса публики одним из самых «сексапильных» мужчин США. А спустя 17 лет именно он появился в роли инструктора-хореографа в картине «Грязные танцы: Гаванские ночи». (1989)
6/10
Свернуть

Качество: BDRip 1080p
Формат: Matroska
Видео: AVC; 1920x1080 (16:9); 8950 kbps; 23,976 fps;
Аудио#1: AC3 at 448 Кбит/сек, 6 каналов, 48,0 КГц;
Аудио#2: DTS; 755 Kbps; 48,0 kHz; 6 ch [Живов]
Аудио#3: DTS; 755 Kbps; 48,0 kHz; 6 ch ENG
Аудио#4: AC3 at 640 Кбит/сек, 6 каналов, 48,0 КГц [Оригинал] (отдельно)

Скриншоты
Изображение
Изображение
Изображение
Свернуть
MediaInfo
Общее
Уникальный идентификатор : 191777459982980748601210621779701325551 (0x9046FECAEE39C49B9A24E9E80252DEEF)
Полное имя : D:\DirtyDancing.1987.BDRip.1080p.DTS.Rus.Eng.Sub~GreenRay\Dirty.Dancing.1987.BDRip.1080p.DTS.Rus.Eng.Sub.mkv
Формат : Matroska
Версия формата : Version 2
Размер файла : 7,64 Гбайт
Продолжительность : 1 ч. 40 м.
Общий поток : 10,9 Мбит/сек
Название фильма : Dirty Dancing (1987) BDRip 1080p (v.2) by GreenRay
Дата кодирования : UTC 2009-05-25 20:46:33
Программа кодирования : mkvmerge v2.8.0 ('The Tree') built on May 9 2009 18:02:06
Библиотека кодирования : libebml v0.7.7 + libmatroska v0.8.1

Видео
Идентификатор : 1
Формат : AVC
Формат/Информация : Advanced Video Codec
Профиль формата : High@L4.1
Параметр CABAC формата : Да
Параметр ReFrames формата : 4 кадра
Идентификатор кодека : V_MPEG4/ISO/AVC
Продолжительность : 1 ч. 40 м.
Битрейт : 8950 Кбит/сек
Ширина : 1920 пикселей
Высота : 1080 пикселей
Соотношение сторон : 16:9
Частота кадров : 23,976 кадра/сек
Цветовое пространство : YUV
Субдискретизация насыщенности : 4:2:0
Битовая глубина : 8 бит
Тип развёртки : Прогрессивная
Бит/(Пиксели*Кадры) : 0.180
Размер потока : 6,11 Гбайт (80%)
Библиотека кодирования : x264 core 67 r1153M 7b6ce6a
Настройки программы : cabac=1 / ref=4 / deblock=1:-2:-2 / analyse=0x3:0x113 / me=umh / subme=9 / psy_rd=0.8:0.1 / mixed_ref=1 / me_range=32 / chroma_me=1 / trellis=2 / 8x8dct=1 / cqm=0 / deadzone=21,11 / chroma_qp_offset=-3 / threads=6 / nr=0 / decimate=0 / mbaff=0 / bframes=5 / b_pyramid=1 / b_adapt=2 / b_bias=0 / direct=3 / wpredb=1 / keyint=250 / keyint_min=25 / scenecut=40 / rc=2pass / bitrate=8950 / ratetol=1.0 / qcomp=0.60 / qpmin=10 / qpmax=51 / qpstep=4 / cplxblur=20.0 / qblur=0.5 / vbv_maxrate=50000 / vbv_bufsize=50000 / ip_ratio=1.40 / pb_ratio=1.30 / aq=1:1.00
Язык : English
Default : Да
Forced : Нет

Аудио #1
Идентификатор : 2
Формат : AC-3
Формат/Информация : Audio Coding 3
Расширение режима : CM (complete main)
Идентификатор кодека : A_AC3
Продолжительность : 1 ч. 40 м.
Вид битрейта : Постоянный
Битрейт : 448 Кбит/сек
Каналы : 6 каналов
Расположение каналов : Front: L C R, Side: L R, LFE
Частота : 48,0 КГц
Битовая глубина : 16 бит
Метод сжатия : С потерями
Размер потока : 321 Мбайт (4%)
Заголовок : DD @ 448 Kbps MVO
Язык : Russian
Default : Да
Forced : Нет

Аудио #2
Идентификатор : 3
Формат : DTS
Формат/Информация : Digital Theater Systems
Идентификатор кодека : A_DTS
Продолжительность : 1 ч. 40 м.
Вид битрейта : Постоянный
Битрейт : 755 Кбит/сек
Каналы : 6 каналов
Расположение каналов : Front: L C R, Side: L R, LFE
Частота : 48,0 КГц
Битовая глубина : 24 бит
Метод сжатия : С потерями
Задержка видео : 81 мс.
Размер потока : 541 Мбайт (7%)
Заголовок : DTS @ 768 Kbps Zhivov
Язык : Russian
Default : Нет
Forced : Нет

Аудио #3
Идентификатор : 4
Формат : DTS
Формат/Информация : Digital Theater Systems
Профиль формата : ES
Идентификатор кодека : A_DTS
Продолжительность : 1 ч. 40 м.
Вид битрейта : Постоянный
Битрейт : 755 Кбит/сек
Каналы : 7 каналов / 6 каналов
Расположение каналов : Front: L C R, Side: L R, Back: C, LFE / Front: L C R, Side: L R, LFE
Частота : 48,0 КГц
Битовая глубина : 24 бит
Метод сжатия : С потерями
Задержка видео : 3 мс.
Размер потока : 541 Мбайт (7%)
Заголовок : DTS @ 768 Kbps Original
Язык : English
Default : Нет
Forced : Нет

Текст #1
Идентификатор : 5
Формат : UTF-8
Идентификатор кодека : S_TEXT/UTF8
Идентификатор кодека/Информация : UTF-8 Plain Text
Заголовок : rus
Язык : Russian
Default : Да
Forced : Нет

Текст #2
Идентификатор : 6
Формат : UTF-8
Идентификатор кодека : S_TEXT/UTF8
Идентификатор кодека/Информация : UTF-8 Plain Text
Заголовок : eng
Язык : English
Default : Нет
Forced : Нет
Свернуть

_________________
Изображение Изображение Изображение
Не в сети
Профиль  
Начать новую темуОтветить на тему  [ 1 сообщение ] 
Вы не можете начинать темы
Вы не можете отвечать на сообщения
Вы не можете редактировать свои сообщения
Вы не можете удалять свои сообщения