Правила форума

  • В этом разделе создание новых тем Запрещено.
  • Для создания новых тем пользуйтесь Корневым разделом DVD и HD фильмы.
Начать новую темуОтветить на тему  [ 1 сообщение ] 
Торрент файл
Размер: 43.09 GB • Зарегистрирован: 4 года 10 месяцев • Статус: Проверено
Скачан: 11 раз • Желающих скачать: 0 • Поблагодарили: 8 раз
 Раздают: 0  |  0 KB/s  ]   Качают: 0  |  0 KB/s  ] 
 Полного источника не было 2 года 4 месяца 
Сообщения
 Добавлено: 2013-01-19 11:29
Модератор релиз-группы
Аватара пользователя
Стаж: 9 лет 1 месяц
Возраст: 97
Сообщений: 11659
Спасибок: 6532
Лайков: 269
Грязный Гарри: Коллекция / Dirty Harry: Ultimate Collector's Edition

Изображение


Грязный Гарри
Грязный Гарри / Dirty Harry

Изображение

Год выпуска: 1971
Страна: США
Жанр: Боевик, Триллер
Продолжительность: 1ч 42мин
Перевод: Профессиональный (многоголосый, закадровый)

Режиссер: Дон Сигел / Don Siegel

В ролях: Клинт Иствуд /Clint Eastwood/, Хэрри Гардино /Harry Guardino/, Энди Робинсон /Andy Robinson/, Джон Вернон /John Vernon/, Джон Ларч /John Larch/, Джон Митчэм /John Mitchum/

Описание: Фильм "Грязный Гарри" стал очередной поворотной точкой в артистической карьере Клинта Иствуда. В 70-х годах он сменил привычный костюм героя вестерна и лихого наездника, запомнившегося по "спагетти-вестернам" 60-х, на форму полицейского Гарри Кэллахана по прозвищу Грязный Гарри. Гарри должен найти и обезвредить убийцу-маньяка по кличке Скорпион, который терроризирует весь город. Герой фильма не намерен придерживаться устава полицейского. Его Магнум 44-го калибра всегда с ним и готов к бою, его принцип: "сначала стрелять, потом разбираться".
Качество: BDRip
Формат: MKV
Видео кодек: H.264
Аудио кодек: AC3
Видео: 1920x800 (2:40:1), 23.976 fps, x264, 10460 kbps
Аудио: Русский DD 5.1 384 Kbps
скриншоты
Изображение

Изображение

Изображение
Свернуть
Mi
Format : Matroska
Format version : Version 1
File size : 8.22 GiB
Duration : 1h 42mn
Overall bit rate : 11.5 Mbps
Encoded date : UTC 2008-06-01 06:23:49
Writing application : mkvmerge v2.2.0 ('Turn It On Again') built on Mar 4 2008 12:58:26
Writing library : libebml v0.7.7 + libmatroska v0.8.1

Video
ID : 1
Format : AVC
Format/Info : Advanced Video Codec
Format profile : High@L5.1
Format settings, CABAC : Yes
Format settings, ReFrames : 5 frames
Format settings, GOP : N=1
Codec ID : V_MPEG4/ISO/AVC
Duration : 1h 42mn
Bit rate : 10.5 Mbps
Width : 1 920 pixels
Height : 800 pixels
Display aspect ratio : 2.40:1
Frame rate : 23.976 fps
Color space : YUV
Chroma subsampling : 4:2:0
Bit depth : 8 bits
Scan type : Progressive
Bits/(Pixel*Frame) : 0.284
Stream size : 7.33 GiB (89%)
Writing library : x264 core 59 r859M ce13bb6
Encoding settings : cabac=1 / ref=5 / deblock=1:-3:-3 / analyse=0x3:0x133 / me=umh / subme=7 / me-prepass=0 / brdo=1 / mixed_ref=1 / me_range=24 / chroma_me=1 / trellis=0 / 8x8dct=1 / cqm=2 / deadzone=8,2 / chroma_qp_offset=0 / threads=6 / nr=0 / decimate=1 / mbaff=0 / fgo=6 / bframes=5 / b_pyramid=1 / b_adapt=1 / b_bias=0 / direct=3 / wpredb=1 / bime=1 / keyint=250 / keyint_min=25 / scenecut=40(pre) / rc=2pass / bitrate=10458 / ratetol=1.0 / rceq='blurCplx^(1-qComp)' / qcomp=1.00 / qpmin=10 / qpmax=51 / qpstep=4 / cplxblur=20.0 / qblur=0.5 / ip_ratio=1.40 / pb_ratio=1.18 / aq=2:0.60
Language : English
Default : Yes
Forced : No

Audio #1
ID : 2
Format : AC-3
Format/Info : Audio Coding 3
Mode extension : CM (complete main)
Codec ID : A_AC3
Duration : 1h 42mn
Bit rate mode : Constant
Bit rate : 384 Kbps
Channel(s) : 6 channels
Channel positions : Front: L C R, Side: L R, LFE
Sampling rate : 48.0 KHz
Bit depth : 16 bits
Compression mode : Lossy
Stream size : 282 MiB (3%)
Title : Russian
Language : Russian
Default : Yes
Forced : No
Свернуть
Свернуть

Грязный Гарри 2
Грязный Гарри 2: Сила магнума / Dirty Harry 2: Magnum Force

Изображение


Год выпуска: 1973
Страна: США
Жанр: Боевик, Триллер
Продолжительность: 02:02:33
Перевод : Профессиональный (многоголосый закадровый)
Профессиональный (одноголосый закадровый - А.Гаврилов)

Режиссер: Тед Пост / Ted Post

В ролях: Клинт Иствуд, Хэл Холбрук, Митчелл Райан, Фелтон Перри, Дэвид Соул, Роберт Урих, Тим Матисон, Кип Найвен

Описание: Продолжение "Грязного Гарри" (1971). Таинственная волна убийств потрясла весь преступный мир. Один за другим погибают криминальные авторитеты, избежавшие судебного наказания. Им воздается по справедливости, которую одобрил бы своей очаровательной улыбкой полицейский детектив Гарри Кэллэхэн (Клинт Иствуд).
Качество: BDRip
Формат: MKV
Видео кодек: H.264
Аудио кодек: AC3,DTS
Видео: 1920x802, x264, 23.976fps, 11501 Kbps
Аудио 1: Русский DD 2.0 192kbps (многоголосый)
Аудио 2: Русский DD 5.1 384kbps (А.Гаврилов)
скриншоты
Изображение

Изображение

Изображение
Свернуть
Mi
Format : Matroska
Format version : Version 1
File size : 10.8 GiB
Duration : 2h 2mn
Overall bit rate : 12.6 Mbps
Encoded date : UTC 2008-07-09 16:33:53
Writing application : mkvmerge v2.2.0 ('Turn It On Again') built on Mar 4 2008 12:58:26
Writing library : libebml v0.7.7 + libmatroska v0.8.1

Video
ID : 1
Format : AVC
Format/Info : Advanced Video Codec
Format profile : High@L5.1
Format settings, CABAC : Yes
Format settings, ReFrames : 6 frames
Codec ID : V_MPEG4/ISO/AVC
Duration : 2h 2mn
Bit rate : 10.5 Mbps
Width : 1 920 pixels
Height : 802 pixels
Display aspect ratio : 2.40:1
Frame rate : 23.976 fps
Color space : YUV
Chroma subsampling : 4:2:0
Bit depth : 8 bits
Scan type : Progressive
Bits/(Pixel*Frame) : 0.284
Stream size : 8.77 GiB (81%)
Writing library : x264 core 60 r889M 2c59717
Encoding settings : cabac=1 / ref=6 / deblock=1:-3:-3 / analyse=0x3:0x133 / me=umh / subme=7 / rdcmp=psy / brdo=1 / mixed_ref=1 / me_range=32 / chroma_me=1 / trellis=0 / 8x8dct=1 / cqm=2 / deadzone=6,4 / chroma_qp_offset=0 / threads=12 / nr=0 / decimate=0 / mbaff=0 / bframes=16 / b_pyramid=1 / b_adapt=1 / b_bias=0 / direct=3 / wpredb=1 / bime=1 / keyint=250 / keyint_min=25 / scenecut=40(pre) / rc=2pass / bitrate=10491 / ratetol=1.0 / rceq='blurCplx^(1-qComp)' / qcomp=1.00 / qpmin=10 / qpmax=51 / qpstep=4 / cplxblur=20.0 / qblur=0.5 / ip_ratio=1.40 / pb_ratio=1.30 / aq=2:0.60
Language : English
Default : Yes
Forced : No

Audio #1
ID : 2
Format : AC-3
Format/Info : Audio Coding 3
Format profile : Dolby Digital
Mode extension : CM (complete main)
Codec ID : A_AC3
Duration : 2h 2mn
Bit rate mode : Constant
Bit rate : 192 Kbps
Channel(s) : 2 channels
Channel positions : Front: L R
Sampling rate : 48.0 KHz
Bit depth : 16 bits
Compression mode : Lossy
Stream size : 168 MiB (2%)
Title : Russian (MVO)
Language : Russian
Default : Yes
Forced : No

Audio #2
ID : 3
Format : AC-3
Format/Info : Audio Coding 3
Mode extension : CM (complete main)
Codec ID : A_AC3
Duration : 2h 2mn
Bit rate mode : Constant
Bit rate : 384 Kbps
Channel(s) : 6 channels
Channel positions : Front: L C R, Side: L R, LFE
Sampling rate : 48.0 KHz
Bit depth : 16 bits
Compression mode : Lossy
Stream size : 337 MiB (3%)
Title : Russian (Gavrilov)
Language : Russian
Default : No
Forced : No
Свернуть
Свернуть

Грязный Гарри 3
Грязный Гарри 3: Блюститель закона / Dirty Harry 3: The Enforcer

Изображение


Год выпуска: 1976
Страна: США
Жанр: Боевик, триллер
Продолжительность: 1ч 36 мин
Перевод : Авторский (одноголосый, закадровый - В.Горчаков)
Профессиональный (многоголосый, закадровый)

Режиссер: Джеймс Фарго / James Fargo

В ролях: Клинт Иствуд /Clint Eastwood/, Тайн Дэйли /Tyne Daly/, Хэрри Гардино /Harry Guardino/, Брэдфорд Диллмэн /Bradford Dillman/, Джон Митчэм /John Mitchum/, ДеВерен Букуолтер /DeVeren Bookwalter/

Описание: Грязный Гарри получает в напарники симпатичную девушку, так как его предыдущего партнера убивают террористы. Вместе с ней он охотится за бандой во главе с садистом, организовавшим похищение мэра Лос-Анджелеса с целью вымогательства приличного выкупа. Жестокий и крепко сделанный боевик
Качество: BDRip
Формат: MKV
Видео кодек: H.264
Аудио кодек: AC3,DTS
Видео: 1920x800, x264, 23.976fps, 11501 Kbps
Аудио 1: Русский DD 5.1 384kbps (В.Горчаков)
Аудио 2: Русский DD 2.0 192kbps (многоголосый)
скриншоты
Изображение

Изображение

Изображение
Свернуть
Mi
Format : Matroska
Format version : Version 1
File size : 9.17 GiB
Duration : 1h 36mn
Overall bit rate : 13.6 Mbps
Encoded date : UTC 2008-07-09 17:37:04
Writing application : mkvmerge v2.2.0 ('Turn It On Again') built on Mar 4 2008 12:58:26
Writing library : libebml v0.7.7 + libmatroska v0.8.1

Video
ID : 1
Format : AVC
Format/Info : Advanced Video Codec
Format profile : High@L5.1
Format settings, CABAC : Yes
Format settings, ReFrames : 6 frames
Format settings, GOP : N=1
Codec ID : V_MPEG4/ISO/AVC
Duration : 1h 36mn
Bit rate : 11.5 Mbps
Width : 1 920 pixels
Height : 800 pixels
Display aspect ratio : 2.40:1
Frame rate : 23.976 fps
Color space : YUV
Chroma subsampling : 4:2:0
Bit depth : 8 bits
Scan type : Progressive
Bits/(Pixel*Frame) : 0.312
Stream size : 7.58 GiB (83%)
Writing library : x264 core 60 r889M 2c59717
Encoding settings : cabac=1 / ref=6 / deblock=1:-3:-3 / analyse=0x3:0x133 / me=umh / subme=7 / rdcmp=psy / brdo=1 / mixed_ref=1 / me_range=32 / chroma_me=1 / trellis=0 / 8x8dct=1 / cqm=2 / deadzone=6,4 / chroma_qp_offset=0 / threads=12 / nr=0 / decimate=0 / mbaff=0 / bframes=16 / b_pyramid=1 / b_adapt=1 / b_bias=0 / direct=3 / wpredb=1 / bime=1 / keyint=250 / keyint_min=25 / scenecut=40(pre) / rc=2pass / bitrate=11501 / ratetol=1.0 / rceq='blurCplx^(1-qComp)' / qcomp=1.00 / qpmin=10 / qpmax=51 / qpstep=4 / cplxblur=20.0 / qblur=0.5 / ip_ratio=1.40 / pb_ratio=1.30 / aq=2:0.60
Language : English
Default : Yes
Forced : No

Audio #1
ID : 2
Format : AC-3
Format/Info : Audio Coding 3
Format profile : Dolby Digital
Mode extension : CM (complete main)
Codec ID : A_AC3
Duration : 1h 36mn
Bit rate mode : Constant
Bit rate : 192 Kbps
Channel(s) : 2 channels
Channel positions : Front: L R
Sampling rate : 48.0 KHz
Bit depth : 16 bits
Compression mode : Lossy
Stream size : 133 MiB (1%)
Title : Russian (MVO)
Language : Russian
Default : Yes
Forced : No

Audio #2
ID : 3
Format : AC-3
Format/Info : Audio Coding 3
Mode extension : CM (complete main)
Codec ID : A_AC3
Duration : 1h 36mn
Bit rate mode : Constant
Bit rate : 384 Kbps
Channel(s) : 6 channels
Channel positions : Front: L C R, Side: L R, LFE
Sampling rate : 48.0 KHz
Bit depth : 16 bits
Compression mode : Lossy
Stream size : 265 MiB (3%)
Title : Russian (Gorchakov)
Language : Russian
Default : No
Forced : No
Свернуть
Свернуть

Грязный Гарри 4
Грязный Гарри 4: Внезапный удар / Dirty Harry 4: Sudden Impact

Изображение


Год выпуска: 1983
Страна: США
Жанр: Боевик, Триллер
Продолжительность: 1ч 57мин
Перевод : Профессиональный (полное дублирование)
Любительский (одноголосый, закадровый)


Режиссер: Клинт Иствуд / Clint Eastwood

В ролях: Клинт Иствуд /Clint Eastwood/, Элберт Попуэлл /Albert Popwell/, Одри Дж. Нинэн /Audrie J. Neenan/, Пол Дрэйк /Paul Drake/, Брэдфорд Диллмэн /Bradford Dillman/, Сондра Лок /Sondra Locke/

Описание: Гарри покидает Сан-Франциско и ведет расследование на побережье в Сан-Пауло. Там он встречает Сандру Лок, которая сама осуществляет справедливую месть, - несколько лет назад подвыпившие юнцы жестоко изнасиловали ее вместе с младшей сестрой. Теперь она выслеживает этих уже остепенившихся подонков. Местный шеф полиции пытается запретить Гарри действовать в обычной его манере, но недаром его называют Грязным Гарри...
Качество: BDRip
Формат: MKV
Видео кодек: H.264
Аудио кодек: AC3,DTS
Видео: 1920x798, x264, 23.976, 11047 Kbps
Аудио 1: Русский DD 2.0 192kbps (дубляж)
Аудио 2: Русский DD 5.1 384kbps (одноголосый)
скриншоты
Изображение

Изображение

Изображение
Свернуть
Mi
Format : Matroska
Format version : Version 2
File size : 9.51 GiB
Duration : 1h 57mn
Overall bit rate : 11.6 Mbps
Encoded date : UTC 2012-01-16 03:51:30
Writing application : mkvmerge v5.2.1 ('A Far Off Place') built on Jan 2 2012 23:21:10
Writing library : libebml v1.2.3 + libmatroska v1.3.0

Video
ID : 1
Format : AVC
Format/Info : Advanced Video Codec
Format profile : High@L5.1
Format settings, CABAC : Yes
Format settings, ReFrames : 6 frames
Format settings, GOP : N=1
Codec ID : V_MPEG4/ISO/AVC
Duration : 1h 57mn
Bit rate : 11.0 Mbps
Width : 1 920 pixels
Height : 798 pixels
Display aspect ratio : 2.40:1
Frame rate : 23.976 fps
Color space : YUV
Chroma subsampling : 4:2:0
Bit depth : 8 bits
Scan type : Progressive
Bits/(Pixel*Frame) : 0.301
Stream size : 8.85 GiB (93%)
Writing library : x264 core 60 r889M 2c59717
Encoding settings : cabac=1 / ref=6 / deblock=1:-3:-3 / analyse=0x3:0x133 / me=umh / subme=7 / rdcmp=psy / brdo=1 / mixed_ref=1 / me_range=32 / chroma_me=1 / trellis=0 / 8x8dct=1 / cqm=2 / deadzone=6,4 / chroma_qp_offset=0 / threads=12 / nr=0 / decimate=0 / mbaff=0 / bframes=16 / b_pyramid=1 / b_adapt=1 / b_bias=0 / direct=3 / wpredb=1 / bime=1 / keyint=250 / keyint_min=25 / scenecut=40(pre) / rc=2pass / bitrate=11047 / ratetol=1.0 / rceq='blurCplx^(1-qComp)' / qcomp=1.00 / qpmin=10 / qpmax=51 / qpstep=4 / cplxblur=20.0 / qblur=0.5 / ip_ratio=1.40 / pb_ratio=1.30 / aq=2:0.60
Language : English
Default : Yes
Forced : No

Audio #1
ID : 2
Format : AC-3
Format/Info : Audio Coding 3
Format profile : Dolby Digital
Mode extension : CM (complete main)
Codec ID : A_AC3
Duration : 1h 57mn
Bit rate mode : Constant
Bit rate : 192 Kbps
Channel(s) : 2 channels
Channel positions : Front: L R
Sampling rate : 48.0 KHz
Bit depth : 16 bits
Compression mode : Lossy
Stream size : 161 MiB (2%)
Title : Russian (DUB)
Language : Russian
Default : Yes
Forced : No

Audio #2
ID : 3
Format : AC-3
Format/Info : Audio Coding 3
Mode extension : CM (complete main)
Codec ID : A_AC3
Duration : 1h 57mn
Bit rate mode : Constant
Bit rate : 384 Kbps
Channel(s) : 6 channels
Channel positions : Front: L C R, Side: L R, LFE
Sampling rate : 48.0 KHz
Bit depth : 16 bits
Compression mode : Lossy
Stream size : 322 MiB (3%)
Title : Russian (VO)
Language : Russian
Default : No
Forced : No

Свернуть
Свернуть

Грязный Гарри 5
Грязный Гарри 5: Список смертников / Dirty Harry 5: The Dead Pool

Изображение


Год выпуска: 1988
Страна: США
Жанр: Боевик, Триллер
Продолжительность: 01:31:13
Перевод: Профессиональный (многоголосый, закадровый)
Профессиональный (одноголосый закадровый - А.Гаврилов)

Режиссер: Бадди Ван Хорн / Buddy Van Horn

В ролях: Клинт Иствуд /Clint Eastwood/, Патришиа Кларксон /Patricia Clarkson/, Эван С. Ким /Evan C. Kim/, Лиам Нисон /Liam Neeson/, Дэвид Хант /David Hunt/, Майкл Керри /Michael Currie/, Майкл Гудвин /Michael Goodwin/, Джеймс Кэрри /James Carrey/

Описание: Пятый фильм о "Грязном Гарри" рассказывает о том, как инспектор Кэллахэн (Иствуд) расследует жутковатое дело, связанное со списком жертв. Некоторые из них уже убиты, а другим угрожает смерть. Одновременно он влюбляется в очаровательную тележурналистку. Великолепная игра Иствуда поднимает боевик на уровень гораздо выше среднего, и смотрится он с неослабным напряжением.
Качество: BDRip
Формат: MKV
Видео кодек: H.264
Аудио кодек: AC3,DTS
Видео: 1920x1080, 23.976 fps, 12271 Kbps
Аудио 1: Русский DD 2.0 192kbps (многоголосый)
Аудио 2: Русский DD 5.1 384kbps (Гаврилов)
скриншоты
Изображение

Изображение

Изображение
Свернуть
Mi
Format : Matroska
Format version : Version 1
File size : 9.15 GiB
Duration : 1h 31mn
Overall bit rate : 14.4 Mbps
Encoded date : UTC 2008-07-10 17:37:30
Writing application : mkvmerge v2.2.0 ('Turn It On Again') built on Mar 4 2008 12:58:26
Writing library : libebml v0.7.7 + libmatroska v0.8.1

Video
ID : 1
Format : AVC
Format/Info : Advanced Video Codec
Format profile : High@L5.1
Format settings, CABAC : Yes
Format settings, ReFrames : 6 frames
Format settings, GOP : N=1
Codec ID : V_MPEG4/ISO/AVC
Duration : 1h 31mn
Bit rate : 12.3 Mbps
Width : 1 920 pixels
Height : 1 080 pixels
Display aspect ratio : 16:9
Frame rate : 23.976 fps
Color space : YUV
Chroma subsampling : 4:2:0
Bit depth : 8 bits
Scan type : Progressive
Bits/(Pixel*Frame) : 0.247
Stream size : 7.64 GiB (83%)
Writing library : x264 core 60 r889M 2c59717
Encoding settings : cabac=1 / ref=6 / deblock=1:-3:-3 / analyse=0x3:0x133 / me=umh / subme=7 / rdcmp=psy / brdo=1 / mixed_ref=1 / me_range=32 / chroma_me=1 / trellis=0 / 8x8dct=1 / cqm=0 / deadzone=6,4 / chroma_qp_offset=0 / threads=12 / nr=0 / decimate=0 / mbaff=0 / bframes=16 / b_pyramid=1 / b_adapt=1 / b_bias=0 / direct=3 / wpredb=1 / bime=1 / keyint=250 / keyint_min=25 / scenecut=40(pre) / rc=2pass / bitrate=12271 / ratetol=1.0 / rceq='blurCplx^(1-qComp)' / qcomp=1.00 / qpmin=10 / qpmax=51 / qpstep=4 / cplxblur=20.0 / qblur=0.5 / ip_ratio=1.40 / pb_ratio=1.30 / aq=2:0.70
Language : English
Default : Yes
Forced : No

Audio #1
ID : 2
Format : AC-3
Format/Info : Audio Coding 3
Format profile : Dolby Digital
Mode extension : CM (complete main)
Codec ID : A_AC3
Duration : 1h 31mn
Bit rate mode : Constant
Bit rate : 192 Kbps
Channel(s) : 2 channels
Channel positions : Front: L R
Sampling rate : 48.0 KHz
Bit depth : 16 bits
Compression mode : Lossy
Stream size : 125 MiB (1%)
Title : Russian (MVO)
Language : Russian
Default : Yes
Forced : No

Audio #2
ID : 3
Format : AC-3
Format/Info : Audio Coding 3
Mode extension : CM (complete main)
Codec ID : A_AC3
Duration : 1h 31mn
Bit rate mode : Constant
Bit rate : 384 Kbps
Channel(s) : 6 channels
Channel positions : Front: L C R, Side: L R, LFE
Sampling rate : 48.0 KHz
Bit depth : 16 bits
Compression mode : Lossy
Stream size : 251 MiB (3%)
Title : Russian (Gavrilov)
Language : Russian
Default : No
Forced : No
Свернуть
Свернуть
Изображение
_________________
Изображение


Тема поднималась пользователем Артурыч 2013-01-19 11:29.
Не в сети
Профиль  
Начать новую темуОтветить на тему  [ 1 сообщение ] 
Вы не можете начинать темы
Вы не можете отвечать на сообщения
Вы не можете редактировать свои сообщения
Вы не можете удалять свои сообщения