Правила форума

  • В этом разделе создание новых тем Запрещено.
  • Для создания новых тем пользуйтесь Корневым разделом DVD и HD фильмы.
Начать новую темуОтветить на тему  [ Сообщений: 2 ] 
Торрент файл
Размер: 18.94 GB • Зарегистрирован: 3 года 10 месяцев • Статус: Проверено
Скачан: 28 раз • Желающих скачать: 0 • Поблагодарили: 7 раз
 Раздают: 0  |  0 KB/s  ]   Качают: 0  |  0 KB/s  ] 
 Полного источника не было 2 года 8 месяцев 
Сообщения
 Добавлено: 2013-01-22 13:48
Модератор релиз-группы
Аватара пользователя
Стаж: 9 лет 1 месяц
Возраст: 97
Сообщений: 11660
Спасибок: 6532
Лайков: 269
Гудзонский ястреб / Hudson Hawk

Изображение


Страна: США
Студия: TriStar Pictures
Жанр: боевик, комедия
Год выпуска: 1991
Продолжительность: 01:39:53
Перевод: Авторский (одноголосый закадровый) Горчаков
Авторский (одноголосый закадровый) Гаврилов (x2)
Профессиональный (дублированный) Видеосервис
Профессиональный (многоголосый закадровый) ОРТ
Профессиональный (многоголосый закадровый) НТВ
Авторский (одноголосый закадровый) CDV-Matros
Профессиональный (дублированный) Варус-видео


Режиссер: Майкл Леманн / Michael Lehmann

В ролях: Брюс Уиллис, Дэнни Айелло, Энди МакДауэлл, Джеймс Коберн, Ричард Э. Грант, Сандра Бернхард, Дональд Бертон, Дон Харви, Дэвид Карузо и др.

Описание: «Гудзонский Ястреб» — прозвище непревзойденного вора Эдди, который может открыть любой сейф за считанные секунды. Выйдя из тюрьмы, король кражи решает уйти на заслуженный отдых. Но слишком многие на свободе заинтересованы в его криминальном таланте.
Изображение
Качество: BDRemux 1080p
Формат: MKV
Видео: MPEG-4 AVC Video 21977 kbps 1080p / 23,976 fps / 16:9 / High Profile 4.1
Аудио #1: Русский (DTS-HD MA, 2 ch, 1888 Кбит/с) [Авторский одноголосный] Горчаков
Аудио #2: Русский (DTS-HD MA, 2 ch, 1868 Кбит/с) [Авторский одноголосный] Гаврилов
Аудио #3: Русский (AC3, 2 ch, 448 Кбит/с) [Дублированный] Видеосервис
Аудио #4: Русский (AC3, 2 ch, 192 Кбит/с) [Многоголосый закадровый] ОРТ
Аудио #5: Русский (AC3, 2 ch, 192 Кбит/с)[Многоголосый закадровый] НТВ
Аудио #6: Русский (AC3, 2 ch, 192 Кбит/с) [Авторский одноголосный] Гаврилов
Аудио #7: Русский (AC3, 2 ch, 192 Кбит/с) [Одноголосный] CDV-Matros
Аудио #8: Русский (AC3, 2 ch, 192 Кбит/с) [Дублированный] Варус-видео
скриншоты
Изображение

Изображение

Изображение

Изображение

Изображение

Изображение
Свернуть
Mi
General
Unique ID : 207274125272616834286222067028329833222 (0x9BEF8B6176942FF8967FC2A492E52306)
Complete name : D:\Hudson.Hawk.1991.BDRemux.1080p.mkv
Format : Matroska
Format version : Version 4 / Version 2
File size : 18.9 GiB
Duration : 1h 39mn
Overall bit rate mode : Variable
Overall bit rate : 27.1 Mbps
Encoded date : UTC 2013-01-22 10:21:44
Writing application : mkvmerge v6.0.0 ('Coming Up For Air') built on Jan 20 2013 09:52:00
Writing library : libebml v1.3.0 + libmatroska v1.4.0

Video
ID : 1
Format : AVC
Format/Info : Advanced Video Codec
Format profile : High@L4.1
Format settings, CABAC : Yes
Format settings, ReFrames : 4 frames
Codec ID : V_MPEG4/ISO/AVC
Duration : 1h 39mn
Bit rate mode : Variable
Maximum bit rate : 40.0 Mbps
Width : 1 920 pixels
Height : 1 080 pixels
Display aspect ratio : 16:9
Frame rate mode : Constant
Frame rate : 23.976 fps
Color space : YUV
Chroma subsampling : 4:2:0
Bit depth : 8 bits
Scan type : Progressive
Default : Yes
Forced : No
Color primaries : BT.709
Transfer characteristics : BT.709
Matrix coefficients : BT.709

Audio #1
ID : 2
Format : DTS
Format/Info : Digital Theater Systems
Format profile : MA / Core
Mode : 16
Format settings, Endianness : Big
Codec ID : A_DTS
Duration : 1h 39mn
Bit rate mode : Variable
Bit rate : Unknown / 1 509 Kbps
Channel(s) : 2 channels
Channel positions : Front: L R
Sampling rate : 48.0 KHz
Bit depth : 24 bits
Compression mode : Lossless / Lossy
Title : [Авторский одноголосный] Горчаков
Language : Russian
Default : Yes
Forced : No

Audio #2
ID : 3
Format : DTS
Format/Info : Digital Theater Systems
Format profile : MA / Core
Mode : 16
Format settings, Endianness : Big
Codec ID : A_DTS
Duration : 1h 39mn
Bit rate mode : Variable
Bit rate : Unknown / 1 509 Kbps
Channel(s) : 2 channels
Channel positions : Front: L R
Sampling rate : 48.0 KHz
Bit depth : 24 bits
Compression mode : Lossless / Lossy
Title : [Авторский одноголосный] Гаврилов
Language : Russian
Default : No
Forced : No

Audio #3
ID : 4
Format : AC-3
Format/Info : Audio Coding 3
Mode extension : CM (complete main)
Format settings, Endianness : Big
Codec ID : A_AC3
Duration : 1h 39mn
Bit rate mode : Constant
Bit rate : 448 Kbps
Channel(s) : 2 channels
Channel positions : Front: L R
Sampling rate : 48.0 KHz
Bit depth : 16 bits
Compression mode : Lossy
Stream size : 320 MiB (2%)
Title : [Дублированный] Видеосервис
Language : Russian
Default : No
Forced : No

Audio #4
ID : 5
Format : AC-3
Format/Info : Audio Coding 3
Mode extension : CM (complete main)
Format settings, Endianness : Big
Codec ID : A_AC3
Duration : 1h 39mn
Bit rate mode : Constant
Bit rate : 192 Kbps
Channel(s) : 2 channels
Channel positions : Front: L R
Sampling rate : 48.0 KHz
Bit depth : 16 bits
Compression mode : Lossy
Stream size : 137 MiB (1%)
Title : [Многоголосый закадровый] ОРТ
Language : Russian
Default : No
Forced : No

Audio #5
ID : 6
Format : AC-3
Format/Info : Audio Coding 3
Mode extension : CM (complete main)
Format settings, Endianness : Big
Codec ID : A_AC3
Duration : 1h 39mn
Bit rate mode : Constant
Bit rate : 192 Kbps
Channel(s) : 2 channels
Channel positions : Front: L R
Sampling rate : 48.0 KHz
Bit depth : 16 bits
Compression mode : Lossy
Stream size : 137 MiB (1%)
Title : [Многоголосый закадровый] НТВ
Language : Russian
Default : No
Forced : No

Audio #6
ID : 7
Format : AC-3
Format/Info : Audio Coding 3
Mode extension : CM (complete main)
Format settings, Endianness : Big
Codec ID : A_AC3
Duration : 1h 39mn
Bit rate mode : Constant
Bit rate : 192 Kbps
Channel(s) : 2 channels
Channel positions : Front: L R
Sampling rate : 48.0 KHz
Bit depth : 16 bits
Compression mode : Lossy
Stream size : 137 MiB (1%)
Title : [Авторский одноголосный] Гаврилов
Language : Russian
Default : No
Forced : No

Audio #7
ID : 8
Format : AC-3
Format/Info : Audio Coding 3
Mode extension : CM (complete main)
Format settings, Endianness : Big
Codec ID : A_AC3
Duration : 1h 39mn
Bit rate mode : Constant
Bit rate : 192 Kbps
Channel(s) : 2 channels
Channel positions : Front: L R
Sampling rate : 48.0 KHz
Bit depth : 16 bits
Compression mode : Lossy
Stream size : 137 MiB (1%)
Title : [Одноголосный] CDV-Matros
Language : Russian
Default : No
Forced : No

Audio #8
ID : 9
Format : AC-3
Format/Info : Audio Coding 3
Mode extension : CM (complete main)
Format settings, Endianness : Big
Codec ID : A_AC3
Duration : 1h 39mn
Bit rate mode : Constant
Bit rate : 192 Kbps
Channel(s) : 2 channels
Channel positions : Front: L R
Sampling rate : 48.0 KHz
Bit depth : 16 bits
Compression mode : Lossy
Stream size : 137 MiB (1%)
Title : [Дублированный] Варус-видео
Language : Russian
Default : No
Forced : No

Свернуть
_________________
Изображение
Не в сети
Профиль  
 Добавлено: 2013-03-29 17:54 (спустя 2 месяца 7 дней)
Аватара пользователя
Стаж: 8 лет 3 месяца
Возраст: 29
Сообщений: 109
Спасибок: 3
спасибо огромное! :-D один из первых фильмов брюса
_________________
Изображение
Не в сети
Профиль  
Начать новую темуОтветить на тему  [ Сообщений: 2 ] 
Вы не можете начинать темы
Вы не можете отвечать на сообщения
Вы не можете редактировать свои сообщения
Вы не можете удалять свои сообщения