Правила форума

  • В этом разделе создание новых тем Запрещено.
  • Для создания новых тем пользуйтесь Корневым разделом DVD и HD фильмы.
Начать новую темуОтветить на тему  [ Сообщений: 5 ] 
Торрент файл
Размер: 8.74 GB • Зарегистрирован: 5 лет 3 месяца • Статус: Проверено
Скачан: 317 раз • Желающих скачать: 0 • Поблагодарили: 76 раз
 Раздают: 0  |  0 KB/s  ]   Качают: 1  |  0 KB/s  ] 
 Полного источника не было 15 дней 
Сообщения
 Добавлено: 2011-08-16 17:49
Top-releaser
Аватара пользователя
Стаж: 8 лет 9 месяцев
Сообщений: 479
Спасибок: 20187
Лайков: 16
Халк, Невероятный Халк

Изображение

2003 - Халк / Hulk

Халк

«Unleash the hero within»

Изображение

Год выпуска: 2003
Страна: Изображение США; Universal Pictures
Жанр: Боевик, фантастика
Продолжительность: 02:18:13
Перевод: Профессиональный (дублированный)
Cубтитры: Английские

Режиссёр: Энг Ли / Ang Lee

В ролях: Эрик Бана, Дженнифер Коннелли, Сэм Эллиотт, Джош Лукас, Ник Нолти, Пол Керси, Кара Буоно, Тодд Тэсэн, Кевин О. Ранкин, Селия Уэстон

Описание: Доктор Брюс Бэннер (ученый, работающий над изобретением новой бомбы) подвергся воздействию гамма-лучей и превратился в Халка — существо невероятной физической силы, которое в состоянии ярости становится огромным зеленым монстром.

Его преследуют военные под предводительством генерала Росса, ему приходится бежать через всю страну. В конце концов, у него возникает любовная история с генеральской дочкой Бетти…


Качество: BDRip 1080p
Формат: MKV

Видео: 1920x1040 (16:9), 23.976 fps, 4080 kbps

Аудио : 48 kHz, AC-3, 6 ch, 448 kbps [Дубляж]
Изображение

Изображение
MediaInfo

Общее
Уникальный идентификатор : 239030215247780537069428348375494171334 (0xB3D38B7F9BCD2913BA4AA8B239061AC6)
Полное имя : D:\Cinema\Halk 1-2\Hаlk.2003.BDRip.1080p..mkv
Формат : Matroska
Размер файла : 4,37 Гбайт
Продолжительность : 2 ч. 18 м.
Общий поток : 4529 Кбит/сек
Дата кодирования : UTC 2011-06-07 21:20:13
Программа кодирования : mkvmerge v4.0.0 ('The Stars were mine') сборка от Jun 6 2010 16:18:42
Библиотека кодирования : libebml v1.0.0 + libmatroska v1.0.0

Видео
Идентификатор : 1
Формат : AVC
Формат/Информация : Advanced Video Codec
Профиль формата : High@L4.1
Параметр CABAC формата : Да
Параметр ReFrames формата : 4 кадры
Идентификатор кодека : V_MPEG4/ISO/AVC
Продолжительность : 2 ч. 18 м.
Битрейт : 4080 Кбит/сек
Ширина : 1920 пикс.
Высота : 1040 пикс.
Соотношение сторон : 16:9
Частота кадров : 23,976 кадр/сек
Цветовое пространство : YUV
Подвыборка цветности : 4:2:0
Битовая глубина : 8 бит
Тип развёртки : Прогрессивная
Бит/(Пиксели*Кадры) : 0.085
Размер потока : 3,85 Гбайт (88%)
Библиотека кодирования : x264 core 115 r1995 c1e60b9
Настройки программы : cabac=1 / ref=4 / deblock=1:0:0 / analyse=0x3:0x133 / me=umh / subme=10 / psy=1 / psy_rd=1.00:0.10 / mixed_ref=1 / me_range=24 / chroma_me=1 / trellis=2 / 8x8dct=1 / cqm=0 / deadzone=21,11 / fast_pskip=0 / chroma_qp_offset=-3 / threads=12 / sliced_threads=0 / nr=0 / decimate=1 / interlaced=0 / bluray_compat=0 / constrained_intra=0 / bframes=5 / b_pyramid=2 / b_adapt=2 / b_bias=0 / direct=3 / weightb=1 / open_gop=0 / weightp=2 / keyint=250 / keyint_min=23 / scenecut=40 / intra_refresh=0 / rc_lookahead=60 / rc=2pass / mbtree=1 / bitrate=4080 / ratetol=1.0 / qcomp=0.60 / qpmin=0 / qpmax=69 / qpstep=4 / cplxblur=20.0 / qblur=0.5 / ip_ratio=1.40 / aq=1:1.00
Язык : English

Аудио
Идентификатор : 2
Формат : AC-3
Формат/Информация : Audio Coding 3
Расширение режима : CM (complete main)
Идентификатор кодека : A_AC3
Продолжительность : 2 ч. 18 м.
Вид битрейта : Постоянный
Битрейт : 448 Кбит/сек
Канал(ы) : 6 канала(ов)
Расположение каналов : Front: L C R, Side: L R, LFE
Частота : 48,0 КГц
Битовая глубина : 16 бит
Метод сжатия : С потерями
Размер потока : 443 Мбайт (10%)
Язык : Russian

Текст
Идентификатор : 3
Формат : UTF-8
Идентификатор кодека : S_TEXT/UTF8
Идентификатор кодека/Информация : UTF-8 Plain Text
Язык : English

Свернуть
Скриншоты
Изображение
Изображение
Изображение
Изображение
Изображение
Свернуть
Раздача:

Изображение

Свернуть
2008 - Невероятный Халк / The Incredible Hulk

Невероятный Халк

«В гневе он Вам не понравится!»

Изображение

Год выпуска: 2008
Страна: Изображение США; Universal Pictures
Жанр: Фантастика, боевик, триллер
Продолжительность: 01:52:14
Перевод: Профессиональный (дублированный)

Режиссёр: Луи Летерье / Louis Leterrier

В ролях: Эдвард Нортон, Лив Тайлер, Тим Рот, Уильям Хёрт, Тим Блейк Нельсон, Ти Баррелл, Кристина Кэбот, Питер Менса, Лу Ферриньо, Пол Соулз

Описание: История доктора Брюса Баннера, который ищет лекарство от своего необычного «заболевания», превращающего его во время эмоционального стресса в гигантского зеленого монстра Халка. Находясь в бегах от армии, стремящейся его захватить, Брюс почти находит лекарство, но все старания идут прахом, когда у Халка вдруг появляется новый, невероятно сильный противник.

Качество: BDRip 1080p
Формат: MKV

Видео: 1920x816 (2,35:1), 23.976 fps, 5128 kbps

Аудио 1: 48 kHz, AC-3, 6 ch, 448 kbps [Дубляж]
Изображение

Изображение
MediaInfo

Общее
Уникальный идентификатор : 230997287096401711564984722356536835558 (0xADC875900A1929D19D0CDB1E1F737DE6)
Полное имя : D:\Cinema\Halk 1-2\Hаlk.2008.BDRip.1080p..mkv
Формат : Matroska
Размер файла : 4,37 Гбайт
Продолжительность : 1 ч. 52 м.
Общий поток : 5576 Кбит/сек
Дата кодирования : UTC 2011-06-08 07:42:39
Программа кодирования : mkvmerge v4.0.0 ('The Stars were mine') сборка от Jun 6 2010 16:18:42
Библиотека кодирования : libebml v1.0.0 + libmatroska v1.0.0

Видео
Идентификатор : 1
Формат : AVC
Формат/Информация : Advanced Video Codec
Профиль формата : High@L4.1
Параметр CABAC формата : Да
Параметр ReFrames формата : 5 кадры
Идентификатор кодека : V_MPEG4/ISO/AVC
Продолжительность : 1 ч. 52 м.
Битрейт : 5128 Кбит/сек
Ширина : 1920 пикс.
Высота : 816 пикс.
Соотношение сторон : 2,35:1
Частота кадров : 23,976 кадр/сек
Цветовое пространство : YUV
Подвыборка цветности : 4:2:0
Битовая глубина : 8 бит
Тип развёртки : Прогрессивная
Бит/(Пиксели*Кадры) : 0.137
Размер потока : 3,93 Гбайт (90%)
Библиотека кодирования : x264 core 115 r1995 c1e60b9
Настройки программы : cabac=1 / ref=5 / deblock=1:0:0 / analyse=0x3:0x133 / me=umh / subme=10 / psy=1 / psy_rd=1.00:0.10 / mixed_ref=1 / me_range=24 / chroma_me=1 / trellis=2 / 8x8dct=1 / cqm=0 / deadzone=21,11 / fast_pskip=0 / chroma_qp_offset=-3 / threads=6 / sliced_threads=0 / nr=0 / decimate=1 / interlaced=0 / bluray_compat=0 / constrained_intra=0 / bframes=5 / b_pyramid=2 / b_adapt=2 / b_bias=0 / direct=3 / weightb=1 / open_gop=0 / weightp=2 / keyint=250 / keyint_min=23 / scenecut=40 / intra_refresh=0 / rc_lookahead=60 / rc=2pass / mbtree=1 / bitrate=5128 / ratetol=1.0 / qcomp=0.60 / qpmin=0 / qpmax=69 / qpstep=4 / cplxblur=20.0 / qblur=0.5 / ip_ratio=1.40 / aq=1:1.00
Язык : English

Аудио
Идентификатор : 2
Формат : AC-3
Формат/Информация : Audio Coding 3
Расширение режима : CM (complete main)
Идентификатор кодека : A_AC3
Продолжительность : 1 ч. 52 м.
Вид битрейта : Постоянный
Битрейт : 448 Кбит/сек
Канал(ы) : 6 канала(ов)
Расположение каналов : Front: L C R, Side: L R, LFE
Частота : 48,0 КГц
Битовая глубина : 16 бит
Метод сжатия : С потерями
Размер потока : 360 Мбайт (8%)
Язык : Russian

Свернуть
Скриншоты
Изображение
Изображение
Изображение
Изображение
Изображение
Изображение
Изображение
Свернуть
Раздача:

Изображение

Свернуть

Изображение
_________________
Изображение
Изображение
Не в сети
Профиль  
 Добавлено: 2011-11-20 20:35 (спустя 3 месяца 4 дня)
Аватара пользователя
Стаж: 8 лет 7 месяцев
Сообщений: 54
2008 Халк - это продолжение 2003???

А ещё скорости бы!!!
Не в сети
Профиль  
 Добавлено: 2013-02-13 17:31 (спустя 1 год 2 месяца)
Стаж: 6 лет 6 месяцев
Возраст: 30
Сообщений: 79
Спасибок: 14
ХАЛК - самый сильный супер-герой!!! :men:
Не в сети
Профиль  
 Добавлено: 2013-02-13 18:29 (спустя 58 минут)
Стаж: 8 лет 2 месяца
Сообщений: 16
Давайте газанём! :bra_vo: :bra_vo: :bra_vo: :bra_vo: :bra_vo: :bra_vo:
Не в сети
Профиль  
 Добавлено: 2013-06-29 11:36 (спустя 4 месяца 15 дней)
Стаж: 6 лет 6 месяцев
Сообщений: 7
скорость.. срочно нужна скорость)
Не в сети
Профиль  
Начать новую темуОтветить на тему  [ Сообщений: 5 ] 
Вы не можете начинать темы
Вы не можете отвечать на сообщения
Вы не можете редактировать свои сообщения
Вы не можете удалять свои сообщения