Правила форума

  • В этом разделе создание новых тем Запрещено.
  • Для создания новых тем пользуйтесь Корневым разделом DVD и HD фильмы.
Начать новую темуОтветить на тему  [ Сообщений: 5 ] 
Торрент файл
Размер: 9.77 GB • Зарегистрирован: 5 лет 5 месяцев • Статус: Проверено
Скачан: 246 раз • Желающих скачать: 0 • Поблагодарили: 52 раза
 Раздают: 0  |  0 KB/s  ]   Качают: 0  |  0 KB/s  ] 
 Полного источника не было 2 года 
Сообщения
 Добавлено: 2011-06-11 14:50
Модератор
Аватара пользователя
Стаж: 8 лет 1 месяц
Возраст: 20
Сообщений: 32130
Спасибок: 98576
Лайков: 80
Изображение

Ханна. Совершенное оружие / Hanna


Год выпуска: 2011
Страна: США, Германия, Великобритания
Слоган: «Она - совершенное оружие»

Жанр: боевик, триллер, криминал, детектив
Продолжительность: 01:46:24
Перевод: Профессиональный (полное дублирование) [лицензия]

Режиссёр: Джо Райт
В ролях: Сирша Ронан (Hanna), Эрик Бана (Erik), Кейт Бланшетт (Marissa), Том Холландер (Isaacs), Пэрис Эрроусмит (CIA Tech #1), Оливия Уильямс (Rachel), Джейсон Флеминг (Sebastian), Джон Макмилла (Lewis), Тим Бекманн (Walt), Вики Крипс (Johanna Zadek), Кристиан Малкольм (Head of Ops), Джэми Берниш (Burton)
Бюджет: $30 000 000
Сборы в США: $39 658 039
Сборы в России: $1 953 397
Сборы в мире: $49 061 420

Мировая премьера: 7 апреля 2011
Релиз на DVD: 9 июня 2011, «Вольга»
Описание: Хрупкая на первый взгляд Ханна - идеальный солдат. Тайна ее рождения ревностно охраняется американским правительством. Ее миссия - отомстить бывшим работодателям отца, некогда секретного агента. Спецслужбы всего мира выходят на след девочки-убийцы. Охота начинается...
Изображение
MPAA: Изображение - Детям до 13 лет просмотр не желателен
Качество: BDRip 1080p R5
Формат: MKV
Видео: 11.1 mb/s, 1920x816, 24,000 кадр/сек
Аудио: DTS, 1510 kb/s (6 ch)
Субтитры: Russian [forced]

Релиз группы:Изображение
Изображение
Знаете ли Вы, что...
  • Многие экшн-сцены фильма представляют собой тщательно проработанные сверхдлинные планы. Постановка таких эпизодов – «конек» Райта. Режиссер сообщил, что специально пригласил к сотрудничеству операторов стедикама, работавших на «Русском ковчеге» Александра Сокурова (как известно, данная экспериментальная российская кинопостановка - это единый технически изощренный 99-минутный длинный план).
  • Оригинальный саундтрек к «Ханне» напишет дуэт The Chemical Brothers.
  • Дэнни Бойл разрабатывал проект в начале 2009.
  • По слухам, Альфонсо Куарон мог поставить фильм.
  • Сценарий фильма попал в «Черный список» (Black List) 2006 и 2009 гг.
  • Сет Локхед написал сценарий в 2006 году.
Свернуть
MediaInfo
Общее

Полное имя                       : Hanna.BDRip.1080p.NNTT.k236.mkv
Формат                           : Matroska
Размер файла                     : 9,77 Гбайт
Продолжительность                : 1 ч. 50 м.
Общий поток                      : 12,6 Мбит/сек
Дата кодирования                 : UTC 2011-06-11 08:57:56
Программа кодирования            : mkvmerge v4.8.0 ('I Got The...') сборка от May 24 2011 03:12:58
Библиотека кодирования           : libebml v1.2.0 + libmatroska v1.1.0

Видео
Идентификатор                    : 1
Формат                           : AVC
Формат/Информация                : Advanced Video Codec
Профиль формата                  : High@L4.1
Параметр CABAC формата           : Да
Параметр ReFrames формата        : 5 кадров
Идентификатор кодека             : V_MPEG4/ISO/AVC
Продолжительность                : 1 ч. 50 м.
Битрейт                          : 11,1 Мбит/сек
Ширина                           : 1920 пикс.
Высота                           : 816 пикс.
Соотношение сторон               : 2,35:1
Частота кадров                   : 24,000 кадр/сек
Цветовое пространство            : YUV
Подвыборка цветности             : 4:2:0
Битовая глубина                  : 8 бит
Тип развёртки                    : Прогрессивная
Бит/(Пиксели*Кадры)              : 0.295
Размер потока                    : 8,40 Гбайт (86%)
Библиотека кодирования           : x264 core 115 r1995 c1e60b9
Настройки программы              : cabac=1 / ref=5 / deblock=1:-3:-3 / analyse=0x3:0x133 / me=umh / subme=10 / psy=1 / psy_rd=1.05:0.10 / mixed_ref=1 / me_range=64 / chroma_me=1 / trellis=2 / 8x8dct=1 / cqm=0 / deadzone=21,11 / fast_pskip=1 / chroma_qp_offset=-3 / threads=6 / sliced_threads=0 / nr=0 / decimate=1 / interlaced=0 / bluray_compat=0 / constrained_intra=0 / bframes=4 / b_pyramid=2 / b_adapt=1 / b_bias=0 / direct=1 / weightb=1 / open_gop=0 / weightp=2 / keyint=250 / keyint_min=24 / scenecut=40 / intra_refresh=0 / rc_lookahead=40 / rc=2pass / mbtree=1 / bitrate=11110 / ratetol=1.0 / qcomp=0.60 / qpmin=0 / qpmax=69 / qpstep=4 / cplxblur=20.0 / qblur=0.5 / vbv_maxrate=50000 / vbv_bufsize=62500 / nal_hrd=none / ip_ratio=1.40 / aq=1:1.00
Язык                             : English

Аудио
Идентификатор                    : 2
Формат                           : DTS
Формат/Информация                : Digital Theater Systems
Идентификатор кодека             : A_DTS
Продолжительность                : 1 ч. 50 м.
Вид битрейта                     : Постоянный
Битрейт                          : 1510 Кбит/сек
Каналы                           : 6 каналов
Расположение каналов             : Front: L C R, Side: L R, LFE
Частота                          : 48,0 КГц
Битовая глубина                  : 24 бит
Метод сжатия                     : С потерями
Размер потока                    : 1,17 Гбайт (12%)
Язык                             : Russian

Текст
Идентификатор                    : 3
Формат                           : UTF-8
Идентификатор кодека             : S_TEXT/UTF8
Идентификатор кодека/Информация  : UTF-8 Plain Text
Язык                             : Russian
Свернуть
Скриншоты
Изображение

Изображение

Изображение

Изображение

Изображение

Изображение

Изображение

Изображение
Свернуть


Последний раз редактировалось Костян236 2011-06-11 14:58, всего редактировалось 1 раз.
Не в сети
Профиль  
 Добавлено: 2011-06-11 14:57 (спустя 7 минут)
Модератор
Аватара пользователя
Стаж: 8 лет 1 месяц
Возраст: 20
Сообщений: 32130
Спасибок: 98576
Лайков: 80
хэш будет сверяться минут 50, сидбокс - fastor.
Сами его рекламировали, так что меня не пинать. Но как хэш провериться - будет отличная отдача :)
Не в сети
Профиль  
 Добавлено: 2011-06-17 22:12 (спустя 6 дней)
Аватара пользователя
Стаж: 9 лет 1 месяц
Сообщений: 675
Спасибок: 237
Вы как сговорились все. Нигде нет оригинальной дорожки.
Не в сети
Профиль  
 Добавлено: 2011-06-18 01:38 (спустя 3 часа)
Аватара пользователя
Стаж: 8 лет 11 месяцев
Сообщений: 518
Спасибок: 39
Лайков: 49
И как эта шалава всех ляпает?
Не в сети
Профиль  
 Добавлено: 2013-02-18 15:35 (спустя 1 год 8 месяцев)
Аватара пользователя
Стаж: 6 лет 6 месяцев
Сообщений: 28
газку дайте 80% скачал
Не в сети
Профиль  
Начать новую темуОтветить на тему  [ Сообщений: 5 ] 
Вы не можете начинать темы
Вы не можете отвечать на сообщения
Вы не можете редактировать свои сообщения
Вы не можете удалять свои сообщения