Правила форума

  • В этом разделе создание новых тем Запрещено.
  • Для создания новых тем пользуйтесь Корневым разделом DVD и HD фильмы.
Начать новую темуОтветить на тему  [ Сообщений: 5 ] 
Торрент файл
Размер: 8.53 GB • Зарегистрирован: 5 лет 9 месяцев • Статус: Проверено
Скачан: 44 раза • Желающих скачать: 0 • Поблагодарили: 12 раз
 Раздают: 0  |  0 KB/s  ]   Качают: 0  |  0 KB/s  ] 
 Полного источника не было 2 дня 1 час 
Сообщения
 Добавлено: 2011-02-12 21:23
Модератор релиз-группы
Аватара пользователя
Стаж: 9 лет 1 месяц
Возраст: 97
Сообщений: 11659
Спасибок: 6532
Лайков: 269
Хаос / Chaos

Изображение


Год выпуска: 2005
Страна: США, Канада, Великобритания
Слоган: «Кто у нас тут крыса?»
Жанр: Боевик, драма, криминал, триллер
Продолжительность: 01:46:21
Перевод: Профессиональный (дубляж)
Дублеры: Леонид Белозорович,Михаил Тихонов,Виктор Бохон,Владимир Антоник,Василий Дахненко
Профессиональный (двухголосый закадровый)
Оригинальная звуковая дорожка
Kомментарии
Субтитры: Английские

Режиссёр: Тони Джиглио
В ролях: Джейсон Стэтхэм, Райан Филипп, Уэсли Снайпс, Генри Черни, Джастин Уоддэлл, Николас Лиа, Джессика Стин, Роб ЛаБелль, Джон Кассини, Дэймон Джонсон
Описание: Самым обычным утром банда грабителей захватывает банк и берет в заложники всех, кто в нем находится. Полиция окружает здание банка. Вожак банды Лоренц требует вызвать переговорщика, настаивая на том, что им может быть только детектив Коннерс. А так как Коннерс числится в полиции "на плохом счету", к нему приставляют напарника - новичка Деккера.

Пока Коннерс ведет переговоры, в банк врывается полицейский спецназ. В начавшемся хаосе грабителям удается смешаться с заложниками и выскользнуть из банка. Но самым странным оказалось то, что грабители не унесли с собой ни единого цента. А вскоре выясняется, что во время осады и перестрелки с банковских счетов компьютерным способом был снят миллиард долларов. Распутывая это дело, Коннерс и Деккер нащупывают нити заговора, ведущие на самый "верх"...


Изображение 7.212 оценки: 4918
Изображение

Качество: BDRip, 1080p
Формат: MKV
Видео кодек: H264 (AVC)
Аудио кодек: AC3 (Dolby Digital)
Видео: 1920x812, 23.976 fps, 9557 kbps, 0.254 bit/pixel
Аудио #1: AC3 Dolby Digital, 6ch, 640 kbps, 48 kHz [Профессиональный (дубляж)]
Аудио #2: AC3 Dolby Digital, 6ch, 448 kbps, 48 kHz [Профессиональный (двухголосый закадровый)]
Аудио #3: AC3 Dolby Digital, 6ch, 448 kbps, 48 kHz [Оригинальная звуковая дорожка]
Аудио #4: AC3 Dolby Digital, 2ch, 192 kbps, 48 kHz [комментарии]
Субтитры: Английские
Скриншоты
Изображение

Изображение

Изображение

Изображение

Изображение
Свернуть

mi
Format : Matroska
File size : 8.53 GiB
Duration : 1h 46mn
Overall bit rate : 11.4 Mbps
Encoded date : UTC 2009-08-16 09:18:32
Writing application : mkvmerge v2.4.1 ('Use Me') built on Dec 5 2008 18:30:05
Writing library : libebml v0.7.7 + libmatroska v0.8.1

Video
ID : 1
Format : AVC
Format/Info : Advanced Video Codec
Format profile : High@L4.0
Format settings, CABAC : Yes
Format settings, ReFrames : 1 frame
Codec ID : V_MPEG4/ISO/AVC
Duration : 1h 46mn
Bit rate : 9 867 Kbps
Width : 1 920 pixels
Height : 812 pixels
Display aspect ratio : 2.35:1
Frame rate : 23.976 fps
Color space : YUV
Chroma subsampling : 4:2:0
Bit depth : 8 bits
Scan type : Progressive
Bits/(Pixel*Frame) : 0.264
Stream size : 7.07 GiB (83%)
Writing library : x264 core 1679553132Dec 17 2008
Encoding settings : cabac=1 / ref=1 / deblock=0:0:0 / analyse=0x3:0x113 / me=hex / subme=5 / psy_rd=0.0:0.0 / mixed_ref=0 / me_range=16 / chroma_me=1 / trellis=0 / 8x8dct=1 / cqm=0 / deadzone=21,11 / chroma_qp_offset=0 / threads=1 / nr=0 / decimate=1 / mbaff=0 / bframes=0 / keyint=250 / keyint_min=1 / scenecut=40 / rc=abr / bitrate=9867 / ratetol=1.0 / qcomp=0.50 / qpmin=2 / qpmax=31 / qpstep=4 / ip_ratio=1.40 / aq=1:0.30
Language : English

Audio #1
ID : 2
Format : AC-3
Format/Info : Audio Coding 3
Mode extension : CM (complete main)
Codec ID : A_AC3
Duration : 1h 46mn
Bit rate mode : Constant
Bit rate : 448 Kbps
Channel(s) : 6 channels
Channel positions : Front: L C R, Side: L R, LFE
Sampling rate : 48.0 KHz
Bit depth : 16 bits
Compression mode : Lossy
Stream size : 342 MiB (4%)
Language : Russian

Audio #2
ID : 3
Format : AC-3
Format/Info : Audio Coding 3
Mode extension : CM (complete main)
Codec ID : A_AC3
Duration : 1h 46mn
Bit rate mode : Constant
Bit rate : 448 Kbps
Channel(s) : 6 channels
Channel positions : Front: L C R, Side: L R, LFE
Sampling rate : 48.0 KHz
Bit depth : 16 bits
Compression mode : Lossy
Stream size : 342 MiB (4%)
Language : Russian

Audio #3
ID : 4
Format : AC-3
Format/Info : Audio Coding 3
Mode extension : CM (complete main)
Codec ID : A_AC3
Duration : 1h 46mn
Bit rate mode : Constant
Bit rate : 640 Kbps
Channel(s) : 6 channels
Channel positions : Front: L C R, Side: L R, LFE
Sampling rate : 48.0 KHz
Bit depth : 16 bits
Compression mode : Lossy
Stream size : 489 MiB (6%)
Language : English

Audio #4
ID : 5
Format : AC-3
Format/Info : Audio Coding 3
Format profile : Dolby Digital
Mode extension : CM (complete main)
Codec ID : A_AC3
Duration : 1h 46mn
Bit rate mode : Constant
Bit rate : 192 Kbps
Channel(s) : 2 channels
Channel positions : Front: L R
Sampling rate : 48.0 KHz
Bit depth : 16 bits
Compression mode : Lossy
Stream size : 147 MiB (2%)
Language : English

Text
ID : 6
Format : UTF-8
Codec ID : S_TEXT/UTF8
Codec ID/Info : UTF-8 Plain Text
Language : English

Свернуть


Последний раз редактировалось Артурыч 2011-02-12 21:50, всего редактировалось 1 раз.
Не в сети
Профиль  
 Добавлено: 2011-02-12 21:33 (спустя 9 минут)
Аватара пользователя
Стаж: 8 лет 7 месяцев
Сообщений: 2901
Спасибок: 4796
Лайков: 12

Артурыч:

Видео: 1920x812
а почему скрины тогда непонятно в каком ресайзе?
_________________
Изображение Изображение
Не в сети
Профиль  
 Добавлено: 2011-02-12 21:41 (спустя 8 минут)
Модератор релиз-группы
Аватара пользователя
Стаж: 9 лет 1 месяц
Возраст: 97
Сообщений: 11659
Спасибок: 6532
Лайков: 269
счас исправлю(сь)
:)
Добавлено спустя 35 минут:
исправил(ся)
_________________
Изображение
Не в сети
Профиль  
 Добавлено: 2011-02-12 23:13 (спустя 1 час 32 минуты)
Аватара пользователя
Стаж: 8 лет 7 месяцев
Сообщений: 2901
Спасибок: 4796
Лайков: 12
отлично :)
_________________
Изображение Изображение
Не в сети
Профиль  
 Добавлено: 2011-06-02 17:04 (спустя 3 месяца 17 дней)
Стаж: 6 лет 2 месяца
Возраст: 30
Сообщений: 3
Билайновцы, вернитесь на раздачу, plz
Не в сети
Профиль  
Начать новую темуОтветить на тему  [ Сообщений: 5 ] 
Вы не можете начинать темы
Вы не можете отвечать на сообщения
Вы не можете редактировать свои сообщения
Вы не можете удалять свои сообщения