Правила форума

  • В этом разделе создание новых тем Запрещено.
  • Для создания новых тем пользуйтесь Корневым разделом DVD и HD фильмы.
Начать новую темуОтветить на тему  [ Сообщений: 4 ] 
Торрент файл
Размер: 7.26 GB • Зарегистрирован: 5 лет 3 месяца • Статус: Проверено
Скачан: 77 раз • Желающих скачать: 0 • Поблагодарили: 17 раз
 Раздают: 0  |  0 KB/s  ]   Качают: 0  |  0 KB/s  ] 
 Полного источника не было 3 месяца 27 дней 
Сообщения
 Добавлено: 2011-08-17 05:10
Top-releaser
Аватара пользователя
Стаж: 8 лет 7 месяцев
Сообщений: 1286
Спасибок: 3420
Лайков: 7
Изображение

Хешер
Hesher

«Sometimes life gives you the finger and sometimes it gives you...»

Страна: Изображение США
Жанр: драма
Год выпуска: 2010
Продолжительность: 01:45:32
Перевод: Субтитры, Профессиональный (многоголосый, закадровый) Озз ТВ

Режиссер: Спенсер Сассер

В ролях: Натали Портман, Джозеф Гордон-Левитт, Рэйн Уилсон, Джон Кэрролл Линч, Пайпер Лори, Фрэнк Коллисон, Одри Василевски, Девин Брошу, Аллан Граф, Моника Стэггсдр

Описание: Хешер - одиночка. Он ненавидит мир и всех, кто в нем живет. Он ходит с давно не мытыми волосами и самодельными татуировками, которые украшают его тело. Он плохо питается и курит много сигарет. Он любит огонь и часто поджигает им различные предметы. Он мирно жил в своем фургоне до того момента, когда встретил Ти Джея

Раздача: Изображение

Изображение


Бюджет: $7 000 000
Сборы в США: $382 946
Мировая премьера: 22 января 2010
MPAA: Изображение
Качество: BDRip
Формат: Matroska
Видео: AVC; 1920x1080 (16:9); 9074 Kbps; 24 fps; 0,182 bpp
Аудио №1: Russian; AC3; 448 Kbps; CBR; 6 ch
Аудио №2: English; AC3; 128 Kbps; CBR; 2 ch
Изображение
MediaInfo
Общее
Уникальный идентификатор : 204169933168670950207984144075419799821 (0x9999B2E4C60BF590A8E66857E4CFD10D)
Полное имя : E:\Видео\Hesher.2010.P2.BRRip.x264.[R.G.KINOvNINO].mkv
Формат : Matroska
Версия формата : Version 1
Размер файла : 7,26 Гбайт
Продолжительность : 1 ч. 45 м.
Общий поток : 9847 Кбит/сек
Название фильма : Хешер / Hesher (2010) BDRip-AVC от FireBit - firebit.org
Дата кодирования : UTC 2011-08-16 03:32:39
Программа кодирования : mkvmerge v2.3.0 ('Freak U') built on Sep 8 2008 18:32:16
Библиотека кодирования : libebml v0.7.7 + libmatroska v0.8.1

Видео
Идентификатор : 1
Формат : AVC
Формат/Информация : Advanced Video Codec
Профиль формата : High@L4.1
Параметр CABAC формата : Да
Параметр ReFrames формата : 4 кадра
Идентификатор кодека : V_MPEG4/ISO/AVC
Продолжительность : 1 ч. 45 м.
Битрейт : 9075 Кбит/сек
Ширина : 1920 пикс.
Высота : 1080 пикс.
Соотношение сторон : 16:9
Частота кадров : 24,000 кадр/сек
Цветовое пространство : YUV
Подвыборка цветности : 4:2:0
Битовая глубина : 8 бит
Тип развёртки : Прогрессивная
Бит/(Пиксели*Кадры) : 0.182
Размер потока : 6,69 Гбайт (92%)
Заголовок : http://firebit.org
Язык : English

Аудио #1
Идентификатор : 2
Формат : AC-3
Формат/Информация : Audio Coding 3
Расширение режима : CM (complete main)
Идентификатор кодека : A_AC3
Продолжительность : 1 ч. 45 м.
Вид битрейта : Постоянный
Битрейт : 448 Кбит/сек
Каналы : 6 каналов
Расположение каналов : Front: L C R, Side: L R, LFE
Частота : 48,0 КГц
Битовая глубина : 16 бит
Метод сжатия : С потерями
Задержка видео : 14 мс.
Размер потока : 338 Мбайт (5%)
Заголовок : http://firebit.org
Язык : Russian

Аудио #2
Идентификатор : 3
Формат : AC-3
Формат/Информация : Audio Coding 3
Расширение режима : CM (complete main)
Идентификатор кодека : A_AC3
Продолжительность : 1 ч. 45 м.
Вид битрейта : Постоянный
Битрейт : 128 Кбит/сек
Каналы : 2 канала
Расположение каналов : Front: L R
Частота : 48,0 КГц
Битовая глубина : 16 бит
Метод сжатия : С потерями
Задержка видео : 14 мс.
Размер потока : 96,6 Мбайт (1%)
Заголовок : http://firebit.org
Язык : English

Текст #1
Идентификатор : 4
Формат : UTF-8
Идентификатор кодека : S_TEXT/UTF8
Идентификатор кодека/Информация : UTF-8 Plain Text
Заголовок : http://firebit.org
Язык : English

Текст #2
Идентификатор : 5
Формат : UTF-8
Идентификатор кодека : S_TEXT/UTF8
Идентификатор кодека/Информация : UTF-8 Plain Text
Заголовок : http://firebit.org
Язык : Russian
Свернуть
Скриншоты
Изображение
Изображение
Изображение
Изображение
Изображение
Изображение
Изображение

Свернуть

Изображение
Не в сети
Профиль  
 Добавлено: 2011-08-17 20:00 (спустя 14 часов)
Top-releaser
Аватара пользователя
Стаж: 8 лет 7 месяцев
Сообщений: 1286
Спасибок: 3420
Лайков: 7
Я не против, если прилепят :)
Не в сети
Профиль  
 Добавлено: 2011-09-18 18:49 (спустя 1 месяц)
Стаж: 6 лет 8 месяцев
Сообщений: 2
Совсем нет скорости:(
Раздайте пожалуйста
Не в сети
Профиль  
 Добавлено: 2013-07-05 19:17 (спустя 1 год 9 месяцев)
Аватара пользователя
Стаж: 8 лет 11 месяцев
Сообщений: 51
крутой фильм, жаль в прокате провалился


Тема поднималась пользователем Shamman 2013-07-05 19:17.
Не в сети
Профиль  
Начать новую темуОтветить на тему  [ Сообщений: 4 ] 
Вы не можете начинать темы
Вы не можете отвечать на сообщения
Вы не можете редактировать свои сообщения
Вы не можете удалять свои сообщения