Правила форума

  • В этом разделе создание новых тем Запрещено.
  • Для создания новых тем пользуйтесь Корневым разделом DVD и HD фильмы.
Начать новую темуОтветить на тему  [ 1 сообщение ] 
Торрент файл
Размер: 23.76 GB • Зарегистрирован: 3 года 8 месяцев • Статус: Проверено
Скачан: 14 раз • Желающих скачать: 0 • Поблагодарили: 3 раза
 Раздают: 0  |  0 KB/s  ]   Качают: 0  |  0 KB/s  ] 
 Полного источника не было 3 года 2 месяца 
Сообщения
 Добавлено: 2013-03-25 05:59
Модератор релиз-группы
Аватара пользователя
Стаж: 6 лет 5 месяцев
Возраст: 25
Сообщений: 622
Спасибок: 10258
Лайков: 7
Хичкок / Hitchcock

Изображение


Год выпуска: 2012
Страна: США
Жанр: Драма, История, Биография
Продолжительность: 01:38:20
Перевод: Профессиональный (полное дублирование) + Оригинальная звуковая дорожка
Субтитры: Русские, Английские

Режиссёр: Саша Джерваси
В ролях: Майкл Стулбарг, Энтони Хопкинс, Хелен Миррен, Скарлетт Йоханссон, Тони Коллетт, Дэнни Хьюстон, Джессика Бил, Майкл Уинкотт, Джеймс Д’Арси, Ричард Портноу
Описание: Известный режиссер отваживается на эксперимент: отойти от ставших его визитной карточкой дорогостоящих фильмов в жанре «саспенс» и снять скромную, к тому же черно-белую картину «Психо». В процессе работы будущий «мастер страха» вглядывается в темные бездны человеческой души, чтобы найти те нервные окончания, прикасаясь к которым он мог бы, как по клавишам, сыграть на эмоциях зрителя настоящую симфонию ужаса.
Изображение 7,5/10 (4,634 votes)
Изображение 7,0/10 (19,772 votes)
Раздача группы: Изображение
Качество: Blu-Ray Remux
Аудио кодек: AC3 (Dolby Digital) + DTS
Видео: MPEG-4 AVC, 32 Мбит/с, 1920x1080
Аудио #1: Русский (AC3, 6 ch, 384 Кбит/с), (AC3, 6 ch, 448 Кбит/с)
Аудио #2: Английский (DTS-HD MA, 6 ch, 3541 Кбит/с), (AC3, 2 ch, 224 Кбит/с)
Субтитры: Русские, Английские
BDInfo
Общее
Уникальный идентификатор : 244952152673900196311199228208276313246 (0xB848118E4E83852FBBDFCBCCB088149E)
Полное имя : U:\Раздачи\Hichkok.2012.x264.MPEG-4.Blu-Ray.Remux.(1080p).mkv
Формат : Matroska
Версия формата : Version 2
Размер файла : 23,8 Гбайт
Продолжительность : 1 ч. 38 м.
Режим общего битрейта : Переменный
Общий поток : 34,6 Мбит/сек
Дата кодирования : UTC 2013-03-24 09:30:33
Программа кодирования : mkvmerge v4.3.0 ('Escape from the Island') сборка от Sep 5 2010 10:30:51
Библиотека кодирования : libebml v1.0.0 + libmatroska v1.0.0

Видео
Идентификатор : 1
Формат : AVC
Формат/Информация : Advanced Video Codec
Профиль формата : High@L4.1
Параметр CABAC формата : Да
Параметр ReFrames формата : 4 кадра
Режим смешивания : Container profile=Unknown@0.0
Идентификатор кодека : V_MPEG4/ISO/AVC
Продолжительность : 1 ч. 38 м.
Вид битрейта : Переменный
Максимальный битрейт : 32,0 Мбит/сек
Ширина : 1920 пикселей
Высота : 1080 пикселей
Соотношение сторон : 16:9
Режим частоты кадров : Постоянный
Частота кадров : 23,976 кадра/сек
Цветовое пространство : YUV
Субдискретизация насыщенности : 4:2:0
Битовая глубина : 8 бит
Тип развёртки : Прогрессивная
Язык : English
Default : Да
Forced : Нет

Аудио #1
Идентификатор : 2
Формат : AC-3
Формат/Информация : Audio Coding 3
Расширение режима : CM (complete main)
Параметр Endianness формата : Big
Идентификатор кодека : A_AC3
Продолжительность : 1 ч. 38 м.
Вид битрейта : Постоянный
Битрейт : 384 Кбит/сек
Каналы : 6 каналов
Расположение каналов : Front: L C R, Side: L R, LFE
Частота : 48,0 КГц
Битовая глубина : 16 бит
Метод сжатия : С потерями
Размер потока : 270 Мбайт (1%)
Заголовок : Дублированный - [R5]
Язык : Russian
Default : Нет
Forced : Да

Аудио #2
Идентификатор : 3
Формат : AC-3
Формат/Информация : Audio Coding 3
Расширение режима : CM (complete main)
Параметр Endianness формата : Big
Идентификатор кодека : A_AC3
Продолжительность : 1 ч. 38 м.
Вид битрейта : Постоянный
Битрейт : 448 Кбит/сек
Каналы : 6 каналов
Расположение каналов : Front: L C R, Side: L R, LFE
Частота : 48,0 КГц
Битовая глубина : 16 бит
Метод сжатия : С потерями
Размер потока : 315 Мбайт (1%)
Заголовок : Любительский -[ lord666]
Язык : Russian
Default : Да
Forced : Нет

Аудио #3
Идентификатор : 4
Формат : DTS
Формат/Информация : Digital Theater Systems
Профиль формата : MA / Core
Режим : 16
Параметр Endianness формата : Big
Идентификатор кодека : A_DTS
Продолжительность : 1 ч. 38 м.
Вид битрейта : Переменный
Битрейт : Неизвестно / 1509 Кбит/сек
Каналы : 6 каналов
Расположение каналов : Front: L C R, Side: L R, LFE
Частота : 48,0 КГц
Битовая глубина : 24 бит
Метод сжатия : Без потерь / Lossy
Заголовок : Оригинал
Язык : English
Default : Нет
Forced : Нет

Аудио #4
Идентификатор : 5
Формат : AC-3
Формат/Информация : Audio Coding 3
Расширение режима : CM (complete main)
Параметр Endianness формата : Big
Идентификатор кодека : A_AC3
Продолжительность : 1 ч. 38 м.
Вид битрейта : Постоянный
Битрейт : 224 Кбит/сек
Каналы : 2 канала
Расположение каналов : Front: L R
Частота : 48,0 КГц
Битовая глубина : 16 бит
Метод сжатия : С потерями
Размер потока : 158 Мбайт (1%)
Заголовок : Commentary
Язык : English
Default : Нет
Forced : Нет

Текст #1
Идентификатор : 6
Формат : UTF-8
Идентификатор кодека : S_TEXT/UTF8
Идентификатор кодека/Информация : UTF-8 Plain Text
Заголовок : R5
Язык : Russian
Default : Нет
Forced : Нет

Текст #2
Идентификатор : 7
Формат : UTF-8
Идентификатор кодека : S_TEXT/UTF8
Идентификатор кодека/Информация : UTF-8 Plain Text
Заголовок : jerichOne
Язык : Russian
Default : Нет
Forced : Нет

Текст #3
Идентификатор : 8
Формат : UTF-8
Идентификатор кодека : S_TEXT/UTF8
Идентификатор кодека/Информация : UTF-8 Plain Text
Язык : Ukrainian
Default : Нет
Forced : Нет

Текст #4
Идентификатор : 9
Формат : UTF-8
Идентификатор кодека : S_TEXT/UTF8
Идентификатор кодека/Информация : UTF-8 Plain Text
Язык : Spanish
Default : Нет
Forced : Нет

Текст #5
Идентификатор : 10
Формат : UTF-8
Идентификатор кодека : S_TEXT/UTF8
Идентификатор кодека/Информация : UTF-8 Plain Text
Язык : English
Default : Нет
Forced : Нет

Меню
00:00:00.000 : :Chapter 01
00:02:26.729 : :Chapter 02
00:05:17.108 : :Chapter 03
00:08:41.145 : :Chapter 04
00:12:26.162 : :Chapter 05
00:14:41.380 : :Chapter 06
00:19:07.396 : :Chapter 07
00:20:56.838 : :Chapter 08
00:23:48.677 : :Chapter 09
00:25:14.221 : :Chapter 10
00:27:13.423 : :Chapter 11
00:31:10.451 : :Chapter 12
00:32:15.808 : :Chapter 13
00:34:21.726 : :Chapter 14
00:37:30.122 : :Chapter 15
00:39:06.552 : :Chapter 16
00:43:22.975 : :Chapter 17
00:45:50.998 : :Chapter 18
00:49:19.498 : :Chapter 19
00:52:54.796 : :Chapter 20
00:58:12.071 : :Chapter 21
01:00:32.837 : :Chapter 22
01:03:56.457 : :Chapter 23
01:10:03.866 : :Chapter 24
01:15:35.113 : :Chapter 25
01:19:40.817 : :Chapter 26
01:22:38.495 : :Chapter 27
01:23:54.237 : :Chapter 28
01:25:57.068 : :Chapter 29
01:28:13.413 : :Chapter 30
01:29:46.130 : :Chapter 31
01:31:38.493 : :Chapter 32
Свернуть
Скриншоты
Изображение
Изображение
Изображение
Изображение
Изображение
Изображение
Свернуть
_________________
Изображение
Не в сети
Профиль  
Начать новую темуОтветить на тему  [ 1 сообщение ] 
Вы не можете начинать темы
Вы не можете отвечать на сообщения
Вы не можете редактировать свои сообщения
Вы не можете удалять свои сообщения