Правила форума

  • В этом разделе создание новых тем Запрещено.
  • Для создания новых тем пользуйтесь Корневым разделом DVD и HD фильмы.
Начать новую темуОтветить на тему  [ Сообщений: 7 ] 
Торрент файл
Размер: 8.14 GB • Зарегистрирован: 4 года 2 месяца • Статус: Проверено
Скачан: 404 раза • Желающих скачать: 0 • Поблагодарили: 76 раз
 Раздают: 0  |  0 KB/s  ]   Качают: 0  |  0 KB/s  ] 
 Полного источника не было 1 день 21 час 
Сообщения
 Добавлено: 2012-09-19 14:34
Модератор
Аватара пользователя
Стаж: 6 лет 10 месяцев
Возраст: 33
Сообщений: 5908
Спасибок: 61239
Лайков: 3540
Изображение

Хижина в лесу
The Cabin in the Woods


Год выпуска: 2011
Страна: США
Слоган: «Думаете, знакомая история?»
Жанр: ужасы, триллер
Продолжительность: 01:35:00
Перевод: Профессиональный (полное дублирование) Лицензия
Режиссер: Дрю Годдард
Сценарий: Джосс Уидон, Дрю Годдард
Продюсер: Джосс Уидон, Джейсон Кларк
Оператор: Питер Диминг
Композитор: Дэвид Джульян
В ролях: Кристен Коннолли, Крис Хемсворт, Анна Хатчисон, Фрэн Кранц, Джесси Уильямс, Брэдли Уитфорд, Ричард Дженкинс, Сигурни Уивер, Брайан Дж. Уайт, Эми Эккер, Тим Де Зарн, Том Ленк
Бюджет: $30 000 000
Сборы в США: $42 073 277
Сборы в России: $2 330 529
Сборы в мире: $65 902 967
Мировая премьера: 10 декабря 2011
Релиз на DVD: 18 сентября 2012, «West Video»
Релиз на Blu-ray: 18 сентября 2012, «West Video»
Описание: Шумная компания из пяти друзей сбегает на уик-энд подебоширить в изолированную от всего мира деревенскую хижину. Звучит знакомо? Ну так вы и не представляете, что вас ждёт на самом деле.

Изображение User Rating: 7.102 (14 188)
Изображение User Rating: 7.40 (74 997)
MPAA: R - Лицам до 17 лет обязательно присутствие взрослого
Раздача группы: Изображение
Изображение
Качество: BDRip, 1080p
Формат: Matroska
Видео: AVC; 1920x800 (2.40:1); 9755 Kbps; 23,976 fps; 0,265 bit/pixel
Аудио №1: Russian; DTS; 754 Kbps; CBR; 6 ch; 24 bit
Аудио №2: DTS; 1509 Kbps; CBR; 6 ch; 16 bit
Оригинал
Субтитры №1: Russian
Субтитры №2: Russian
Субтитры №3:

mediainfo
Общее
Уникальный идентификатор : 208977009241567423645215627825030165419 (0x9D37820AE4137783A6332C0122F0F3AB)
Полное имя : N:\DATA\Hizhina.v.lesu.2011.x264.BDRip(1080p).mkv
Формат : Matroska
Версия формата : Version 2
Размер файла : 8,14 Гбайт
Продолжительность : 1 ч. 35 м.
Общий поток : 12,3 Мбит/сек
Название фильма : --SCHUMAHER--
Дата кодирования : UTC 2012-09-19 09:09:31
Программа кодирования : mkvmerge v5.8.0 ('No Sleep / Pillow') built on Sep 2 2012 15:37:04
Библиотека кодирования : libebml v1.2.3 + libmatroska v1.3.0

Видео
Идентификатор : 1
Формат : AVC
Формат/Информация : Advanced Video Codec
Профиль формата : High@L4.1
Параметр CABAC формата : Да
Параметр ReFrames формата : 5 кадров
Идентификатор кодека : V_MPEG4/ISO/AVC
Продолжительность : 1 ч. 35 м.
Битрейт : 10000 Кбит/сек
Ширина : 1920 пикселей
Высота : 800 пикселей
Соотношение сторон : 2,40:1
Частота кадров : 23,976 кадра/сек
Цветовое пространство : YUV
Субдискретизация насыщенности : 4:2:0
Битовая глубина : 8 бит
Тип развёртки : Прогрессивная
Бит/(Пиксели*Кадры) : 0.272
Размер потока : 6,47 Гбайт (80%)
Библиотека кодирования : x264 core 125 r2208 d9d2288
Настройки программы : cabac=1 / ref=5 / deblock=1:-3:-3 / analyse=0x3:0x113 / me=umh / subme=11 / psy=1 / psy_rd=1.10:0.05 / mixed_ref=1 / me_range=32 / chroma_me=1 / trellis=2 / 8x8dct=1 / cqm=0 / deadzone=21,11 / fast_pskip=0 / chroma_qp_offset=-3 / threads=18 / lookahead_threads=3 / sliced_threads=0 / nr=0 / decimate=0 / interlaced=0 / bluray_compat=0 / constrained_intra=0 / bframes=9 / b_pyramid=2 / b_adapt=2 / b_bias=0 / direct=3 / weightb=1 / open_gop=0 / weightp=2 / keyint=240 / keyint_min=24 / scenecut=40 / intra_refresh=0 / rc_lookahead=240 / rc=2pass / mbtree=1 / bitrate=10000 / ratetol=1.0 / qcomp=0.70 / qpmin=0 / qpmax=69 / qpstep=4 / cplxblur=20.0 / qblur=0.5 / ip_ratio=1.30 / aq=1:1.00
Язык : English
Default : Да
Forced : Да

Аудио #1
Идентификатор : 2
Формат : DTS
Формат/Информация : Digital Theater Systems
Идентификатор кодека : A_DTS
Продолжительность : 1 ч. 35 м.
Вид битрейта : Постоянный
Битрейт : 755 Кбит/сек
Каналы : 6 каналов
Расположение каналов : Front: L C R, Side: L R, LFE
Частота : 48,0 КГц
Битовая глубина : 24 бит
Метод сжатия : С потерями
Размер потока : 513 Мбайт (6%)
Язык : Russian
Default : Да
Forced : Да

Аудио #2
Идентификатор : 3
Формат : DTS
Формат/Информация : Digital Theater Systems
Идентификатор кодека : A_DTS
Продолжительность : 1 ч. 35 м.
Вид битрейта : Постоянный
Битрейт : 1510 Кбит/сек
Каналы : 6 каналов
Расположение каналов : Front: L C R, Side: L R, LFE
Частота : 48,0 КГц
Битовая глубина : 16 бит
Метод сжатия : С потерями
Размер потока : 1,00 Гбайт (12%)
Язык : English
Default : Нет
Forced : Нет

Текст #1
Идентификатор : 4
Формат : UTF-8
Идентификатор кодека : S_TEXT/UTF8
Идентификатор кодека/Информация : UTF-8 Plain Text
Заголовок : R5
Язык : Russian
Default : Нет
Forced : Нет

Текст #2
Идентификатор : 5
Формат : UTF-8
Идентификатор кодека : S_TEXT/UTF8
Идентификатор кодека/Информация : UTF-8 Plain Text
Заголовок : 107miller
Язык : Russian
Default : Нет
Forced : Нет

Текст #3
Идентификатор : 6
Формат : UTF-8
Идентификатор кодека : S_TEXT/UTF8
Идентификатор кодека/Информация : UTF-8 Plain Text
Язык : English
Default : Нет
Forced : Нет

Меню
00:00:00.000 : en:00:00:00.000
00:09:10.550 : en:00:09:10.550
00:18:42.121 : en:00:18:42.121
00:24:21.251 : en:00:24:21.251
00:33:08.653 : en:00:33:08.653
00:39:39.627 : en:00:39:39.627
00:44:18.614 : en:00:44:18.614
00:51:25.291 : en:00:51:25.291
01:00:24.412 : en:01:00:24.412
01:07:18.034 : en:01:07:18.034
01:15:44.540 : en:01:15:44.540
01:21:32.763 : en:01:21:32.763
01:29:54.639 : en:01:29:54.639
Свернуть
"Знаете ли Вы, что..."
  • Чтобы не позволить сюжетным секретам проникнуть в блогосферу, сценарий пришлось усиленно защищать: создатели фильма написали фальшивые сцены специально для кинопроб исполнителей главных ролей.
  • Уист и создатели фильма, исследуя старые фотографии, разработали аутентичный дизайн хижины времен «Золотой лихорадки» или периода после Гражданской войны.
  • Декорации центральной аппаратной были созданы в духе хай-тека 70-х и центра управления полетами НАСА в Хьюстоне.
  • Дизайнер по костюмам Шона Трпчик отразила контраст между деревенской хижиной и прилизанной центральной аппаратной при помощи тщательно подобранных цветов для одежды молодежи и взрослых.
Свернуть
Скриншоты

Изображение
Изображение
Изображение
Изображение
Изображение
Изображение
Свернуть
_________________
ИзображениеИзображение Изображение
Изображение
 sir0rus, tany1984 и di-ys1 нравится это.
Не в сети
Профиль  
 Добавлено: 2012-10-03 07:43 (спустя 13 дней)
Аватара пользователя
Стаж: 9 лет 1 месяц
Сообщений: 687
Спасибок: 2543
Лайков: 17
фильм ОХРЕНЕННЫЙ
в этом году, кроме Рейда, ничего больше так не впечатлило
вот есть же все таки отличные идеи для фильма, а мстители люди в черном морской бой прометей отправляйтесь в топку!
Cкрытый текст
выпал в осадок когда мужика который ставил на водяного - сожрал водяной
Свернуть
Не в сети
Профиль  
 Добавлено: 2012-10-03 15:46 (спустя 8 часов)
Аватара пользователя
Стаж: 8 лет
Сообщений: 32
;;-))) охрененный!)на раз
Не в сети
Профиль  
 Добавлено: 2012-10-03 22:35 (спустя 6 часов)
Аватара пользователя
Стаж: 8 лет
Сообщений: 140
Спасибок: 51
заценим
_________________
Изображение 6 мB/s Изображение 600 kB/s
Изображение
Не в сети
Профиль  
 Добавлено: 2012-10-08 14:46 (спустя 4 дня)
искатель истины
Аватара пользователя
Стаж: 6 лет 2 месяца
Возраст: 26
Сообщений: 104
Спасибок: 22
Дак охрененный или на раз?)
_________________
Cкрытый текст
ИзображениеИзображениеИзображение
Изображениеwww.citilink.ru
Свернуть
Не в сети
Профиль  
 Добавлено: 2012-10-17 12:21 (спустя 8 дней)
Руководитель релиз-группы
Аватара пользователя
Стаж: 7 лет 4 месяца
Возраст: 31
Сообщений: 3407
Спасибок: 46728
Лайков: 5
пора отлеплять :(
Не в сети
Профиль  
 Добавлено: 2014-09-24 13:05 (спустя 1 год 11 месяцев)
Стаж: 8 лет 3 месяца
Сообщений: 34
Встаньте на раздачу пожалуйста.
Не в сети
Профиль  
Начать новую темуОтветить на тему  [ Сообщений: 7 ] 
Вы не можете начинать темы
Вы не можете отвечать на сообщения
Вы не можете редактировать свои сообщения
Вы не можете удалять свои сообщения