Правила форума

  • В этом разделе создание новых тем Запрещено.
  • Для создания новых тем пользуйтесь Корневым разделом DVD и HD фильмы.
Начать новую темуОтветить на тему  [ Сообщений: 4 ] 
Торрент файл
Размер: 46.56 GB • Зарегистрирован: 4 года • Статус: Проверено
Скачан: 43 раза • Желающих скачать: 0 • Поблагодарили: 36 раз
 Раздают: 0  |  0 KB/s  ]   Качают: 0  |  0 KB/s  ] 
 Полного источника не было 7 месяцев 
Сообщения
 Добавлено: 2012-11-20 21:34
Аватара пользователя
Стаж: 7 лет 11 месяцев
Возраст: 24
Сообщений: 184
Спасибок: 236
Лайков: 1
Хищник: Антология / Predator: Anthology (1987-2010)


Изображение


Хищник / Predator (1987) BDRip
Хищник / Predator (1987) BDRip

Изображение


Русское название: Хищник
Оригинальное название: Predator
Выпущено: США
Год выпуска: 1987
Жанр: Боевик, Приключения, Ужасы

Описание фильма:
Американский вертолет был сбит партизанами в Южной Америке. Оставшийся в живых экипаж находится в плену. Центральное разведывательное управление США бросает свои лучшие силы для освобождения американских граждан.
Элитная группа спецназа во главе с Датчем была заброшена в южноамериканские джунгли.

Режиссер: Джон МакТирнан
Актеры: Арнольд Шварценеггер, Карл Уэзерс, Элпидия Каррильо, Билл Дьюк, Джесси Вентура, Сонни Лэндэм, Ричард Чавес, Р.Г. Армстронг, Шейн Блэк, Кевин Питер Холл

Продолжительность: 01:46:35
Перевод: Профессиональный |полное дублирование| + 6х Профессиональный |многолосый закадровый| Киномания, Гемини (R5), ОРТ, Лазер Видео, + 2х двухголосый закадровый |Премьер Видео Фильм, П. Гланц и И. Королёва| + 2x многолосый закадровый |Д. Пучков, А. Гаврилов|
Субтитры: Russian (Blu-ray CEE), Russian (Пучков), English


Видеокодек: MPEG-4 AVC/H.264
Видео: 1280x694p,~9 025 Kbps
Качество видео: BDRip
Аудиокодек: DTS+AC3

Аудио 1: Russian: DTS, 48 kHz, 3/2 (L,C,R,l,r) + LFE ch, ~768 kbps avg | Дубляж, Blu-ray CEE
Аудио 2: Russian: DTS, 48 kHz, 3/2 (L,C,R,l,r) + LFE ch, ~1536 kbps avg | Киномания
Аудио 3: Russian: AC3, 48 kHz, 3/2 (L,C,R,l,r) + LFE ch, ~384 kbps avg | Гемини (R5)
Аудио 4: Russian: AC3, 48 kHz, 2/0 (L,R) ch, ~192 kbps avg | Лазер Видео
Аудио 6: Russian: AC3, 48 kHz, 2/0 (L,R) ch, ~192 kbps avg | Премьер Видео Фильм
Аудио 7: Russian: DTS, 48 kHz, 3/2 (L,C,R,l,r) + LFE ch, ~1536 kbps avg | П. Гланц и И. Королёва
Аудио 8: Russian: DTS, 48 kHz, 3/2 (L,C,R,l,r) + LFE ch, ~1536 kbps avg | Д. Пучков
Аудио 9:: Russian: DTS, 48 kHz, 3/2 (L,C,R,l,r) + LFE ch, ~1536 kbps avg | A.Гаврилов
Аудио 10: Ukrainian: AC3, 48 kHz, 3/2 (L,C,R,l,r) + LFE ch, ~384 kbps avg | 1+1
Аудио 11: Ukrainian: AC3, 48 kHz, 3/2 (L,C,R,l,r) + LFE ch, ~384 kbps avg | ICTV
Аудио 12: English: DTS, 48 kHz, 3/2 (L,C,R,l,r) + LFE ch, ~1536 kbps avg | Original



Скриншоты:
Изображение
Изображение
Изображение
Свернуть
MediaInfo:
General
Complete name : O:\Predator\Predator.1987.720p.BluRay.9xRus.2xUkr.Eng.mkv
Format : Matroska
File size : 14.5 GiB
Duration : 1h 46mn
Overall bit rate : 19.4 Mbps
Encoded date : UTC 2012-06-16 00:02:17
Writing application : mkvmerge v5.6.0 ('Kenya Kane') built on May 27 2012 16:44:04
Writing library : libebml v1.2.3 + libmatroska v1.3.0
Cover : Yes / Yes

Video
ID : 1
Format : AVC
Format/Info : Advanced Video Codec
Format profile : High@L4.1
Format settings, CABAC : Yes
Format settings, ReFrames : 9 frames
Muxing mode : Container profile=Unknown@4.1
Codec ID : V_MPEG4/ISO/AVC
Duration : 1h 46mn
Bit rate : 9 025 Kbps
Nominal bit rate : 9 400 Kbps
Width : 1 280 pixels
Height : 694 pixels
Display aspect ratio : 16:9
Frame rate : 23.976 fps
Resolution : 8 bits
Colorimetry : 4:2:0
Scan type : Progressive
Bits/(Pixel*Frame) : 0.424
Stream size : 6.71 GiB (46%)
Writing library : x264 core 125 r2200kMod 999b753
Encoding settings : cabac=1 / ref=9 / deblock=1:-3:-3 / analyse=0x3:0x113 / me=umh / subme=11 / psy=1 / fade_compensate=0.00 / psy_rd=0.95:0.00 / mixed_ref=1 / me_range=48 / chroma_me=1 / trellis=2 / 8x8dct=1 / cqm=0 / deadzone=21,11 / fast_pskip=0 / chroma_qp_offset=-2 / threads=12 / lookahead_threads=2 / sliced_threads=0 / nr=0 / decimate=0 / interlaced=0 / bluray_compat=0 / constrained_intra=0 / bframes=12 / b_pyramid=2 / b_adapt=2 / b_bias=0 / direct=3 / weightb=1 / open_gop=0 / weightp=2 / keyint=250 / keyint_min=23 / scenecut=40 / intra_refresh=0 / rc_lookahead=40 / rc=2pass / mbtree=0 / bitrate=9400 / ratetol=1.0 / qcomp=0.80 / qpmin=0 / qpmax=69 / qpstep=4 / cplxblur=20.0 / qblur=0.5 / vbv_maxrate=50000 / vbv_bufsize=62500 / nal_hrd=none / ip_ratio=1.40 / pb_ratio=1.30 / aq=1:0.80
Matrix coefficients : BT.709-5, BT.1361, IEC 61966-2-4 709, SMPTE RP177

Audio #1
ID : 2
Format : DTS
Format/Info : Digital Theater Systems
Codec ID : A_DTS
Duration : 1h 46mn
Bit rate mode : Constant
Bit rate : 755 Kbps
Channel(s) : 6 channels
Channel positions : Front: L C R, Surround: L R, LFE
Sampling rate : 48.0 KHz
Resolution : 24 bits
Stream size : 575 MiB (4%)
Title : DTS 5.1 @ 768 kbps - Дублированный, Blu-ray CEE
Language : Russian

Audio #2
ID : 3
Format : DTS
Format/Info : Digital Theater Systems
Codec ID : A_DTS
Duration : 1h 46mn
Bit rate mode : Constant
Bit rate : 1 510 Kbps
Channel(s) : 6 channels
Channel positions : Front: L C R, Surround: L R, LFE
Sampling rate : 48.0 KHz
Resolution : 24 bits
Stream size : 1.12 GiB (8%)
Title : DTS 5.1 @ 1536 kbps - Многоголосый, Киномания
Language : Russian

Audio #3
ID : 4
Format : AC-3
Format/Info : Audio Coding 3
Codec ID : A_AC3
Duration : 1h 46mn
Bit rate mode : Constant
Bit rate : 384 Kbps
Channel(s) : 6 channels
Channel positions : Front: L C R, Surround: L R, LFE
Sampling rate : 48.0 KHz
Stream size : 293 MiB (2%)
Title : AC3 5.1 @ 384 kbps - Многоголосый, Гемини (R5)
Language : Russian

Audio #4
ID : 5
Format : AC-3
Format/Info : Audio Coding 3
Codec ID : A_AC3
Duration : 1h 46mn
Bit rate mode : Constant
Bit rate : 192 Kbps
Channel(s) : 2 channels
Channel positions : L R
Sampling rate : 48.0 KHz
Stream size : 146 MiB (1%)
Title : AC3 2.0 @ 192 kbps - Многоголосый, ОРТ
Language : Russian

Audio #5
ID : 6
Format : AC-3
Format/Info : Audio Coding 3
Codec ID : A_AC3
Duration : 1h 46mn
Bit rate mode : Constant
Bit rate : 192 Kbps
Channel(s) : 2 channels
Channel positions : L R
Sampling rate : 48.0 KHz
Video delay : 14ms
Stream size : 146 MiB (1%)
Title : AC3 2.0 @ 192 kbps - Многоголосый, Лазер Видео
Language : Russian

Audio #6
ID : 7
Format : AC-3
Format/Info : Audio Coding 3
Codec ID : A_AC3
Duration : 1h 46mn
Bit rate mode : Constant
Bit rate : 192 Kbps
Channel(s) : 2 channels
Channel positions : L R
Sampling rate : 48.0 KHz
Video delay : 13ms
Stream size : 146 MiB (1%)
Title : AC3 2.0 @ 192 kbps - Двухголосый, Премьер Видео Фильм
Language : Russian

Audio #7
ID : 8
Format : DTS
Format/Info : Digital Theater Systems
Codec ID : A_DTS
Duration : 1h 46mn
Bit rate mode : Constant
Bit rate : 1 510 Kbps
Channel(s) : 6 channels
Channel positions : Front: L C R, Surround: L R, LFE
Sampling rate : 48.0 KHz
Resolution : 24 bits
Stream size : 1.12 GiB (8%)
Title : DTS 5.1 @ 1536 kbps - Двухголосый, П. Гланц и И. Королёва
Language : Russian

Audio #8
ID : 9
Format : DTS
Format/Info : Digital Theater Systems
Codec ID : A_DTS
Duration : 1h 46mn
Bit rate mode : Constant
Bit rate : 1 510 Kbps
Channel(s) : 6 channels
Channel positions : Front: L C R, Surround: L R, LFE
Sampling rate : 48.0 KHz
Resolution : 24 bits
Stream size : 1.12 GiB (8%)
Title : DTS 5.1 @ 1536 kbps - Одноголосый, Д. Пучков
Language : Russian

Audio #9
ID : 10
Format : DTS
Format/Info : Digital Theater Systems
Codec ID : A_DTS
Duration : 1h 46mn
Bit rate mode : Constant
Bit rate : 1 510 Kbps
Channel(s) : 6 channels
Channel positions : Front: L C R, Surround: L R, LFE
Sampling rate : 48.0 KHz
Resolution : 24 bits
Stream size : 1.12 GiB (8%)
Title : DTS 5.1 @ 1536 kbps - Одноголосый, А. Гаврилов
Language : Russian

Audio #10
ID : 11
Format : AC-3
Format/Info : Audio Coding 3
Codec ID : A_AC3
Duration : 1h 46mn
Bit rate mode : Constant
Bit rate : 384 Kbps
Channel(s) : 6 channels
Channel positions : Front: L C R, Surround: L R, LFE
Sampling rate : 48.0 KHz
Video delay : 16ms
Stream size : 293 MiB (2%)
Title : AC3 5.1 @ 384 kbps - Многоголосый, 1+1
Language : Ukrainian

Audio #11
ID : 12
Format : AC-3
Format/Info : Audio Coding 3
Codec ID : A_AC3
Duration : 1h 46mn
Bit rate mode : Constant
Bit rate : 384 Kbps
Channel(s) : 6 channels
Channel positions : Front: L C R, Surround: L R, LFE
Sampling rate : 48.0 KHz
Video delay : 14ms
Stream size : 293 MiB (2%)
Title : AC3 5.1 @ 384 kbps - Многоголосый, ICTV
Language : Ukrainian

Audio #12
ID : 13
Format : DTS
Format/Info : Digital Theater Systems
Codec ID : A_DTS
Duration : 1h 46mn
Bit rate mode : Constant
Bit rate : 1 510 Kbps
Channel(s) : 6 channels
Channel positions : Front: L C R, Surround: L R, LFE
Sampling rate : 48.0 KHz
Resolution : 24 bits
Stream size : 1.12 GiB (8%)
Title : DTS 5.1 @ 1536 kbps

Text #1
ID : 14
Format : UTF-8
Codec ID : S_TEXT/UTF8
Codec ID/Info : UTF-8 Plain Text
Title : Blu-ray CEE
Language : Russian

Text #2
ID : 15
Format : UTF-8
Codec ID : S_TEXT/UTF8
Codec ID/Info : UTF-8 Plain Text
Title : Д. Пучков
Language : Russian

Text #3
ID : 16
Format : UTF-8
Codec ID : S_TEXT/UTF8
Codec ID/Info : UTF-8 Plain Text

Menu
00:00:00.000 : en:The Invaders (Main Titles)
00:04:04.284 : en:The Professionals
00:06:29.639 : en:Schaefer's Team
00:10:32.464 : en:Death in the Jungle
00:18:21.183 : en:The Watcher
00:20:21.553 : en:The Rebel Camp
00:27:52.337 : en:Set Up
00:31:04.279 : en:The Stalker
00:34:53.716 : en:The Only Way Out
00:37:49.600 : en:Something in the Trees
00:41:00.833 : en:The Living Jungle
00:46:33.373 : en:Another Kill
00:53:08.685 : en:There's Something Out There
01:01:37.402 : en:The Stand
01:04:08.761 : en:The Demon
01:08:09.919 : en:Two for the Kill
01:14:10.362 : en:Billy's Last Stand
01:15:50.212 : en:Dutch and the Demon
01:18:27.369 : en:The Alien's Weakness
01:20:55.015 : en:The Trap and the Trophies
01:25:09.270 : en:The Challenge
01:34:31.832 : en:One Ugly
01:35:49.118 : en:Duel
01:39:58.659 : en:The Last Laugh
01:42:56.170 : en:End Titles

Свернуть
Свернуть
Хищник 2 / Predator 2 (1990) BDRip
Хищник 2 / Predator 2 (1990) BDRip

Изображение


Русское название: Хищник 2
Оригинальное название: Predator 2
Выпущено: США
Год выпуска: 1990
Жанр: Фантастика, Боевик, Ужасы

Описание фильма:
Харриган - крутой полицейский отдела по борьбе с наркотиками полиции Лос - Анджелеса. Ему поручено расследование серии убийств крупных криминальных авторитетов города. Все убийства совершены в извращенной форме и пахнут неприкрытым садизмом. После проведения экспертиз и расследований становится ясно, что убийство - дело рук существа, не имеющего ничего общего с человеком.
Землю опять посетил межпланетный охотник, но ему придется столкнуться с существом еще более опасным, чем он сам - с человеком. Харриган выслеживает охотника, постепенно сам становясь охотником. Один на один, как настоящий воин, он ведет бескомпромиссную битву за сохранение чести и права человека не быть существом, на которое можно охотиться.

Режиссер: Стивен Хопкинс
Актеры: Кевин Питер Холл, Дэнни Гловер, Гэри Бьюзи, Рубен Бладес, Мария Кончита Алонсо, Билл Пэкстон, Роберт Дави, Адам Болдуин, Кент МакКорд, Мортон Дауни мл.

Продолжительность: 01:48:00
Перевод: Перевод: Профессиональный |полное дублирование| + 3х Профессиональный |многолосый закадровый| Киномания, Гемини (R5), ОРТ + двухголосый закадровый |П. Гланц и И. Королёва| + одноголосый закадровый |А. Гаврилов, В. Горчаков, К. Поздняков|
Субтитры: Russian (forced), Russian, Russian (Commentary), English

Видеокодек: MPEG-4 AVC/H.264
Видео: 1280x694p,~6 879 Kbps
Качество видео: BDRip
Аудиокодек: DTS+AC3

Аудио 1: Russian: DTS, 48 kHz, 3/2 (L,C,R,l,r) + LFE ch, ~768 kbps avg | Дубляж, Blu-ray CEE
Аудио 2: Russian: DTS, 48 kHz, 3/2 (L,C,R,l,r) + LFE ch, ~768 kbps avg | R5
Аудио 3: Russian: AC3, 48 kHz, 3/2 (L,C,R,l,r) + LFE ch, ~384 kbps avg | Киномания
Аудио 4: Russian: AC3, 48 kHz, 2/0 (L,R) ch, ~192 kbps avg | ОРТ
Аудио 5: Russian: DTS, 48 kHz, 3/2 (L,C,R,l,r) + LFE ch, ~1536 kbps avg | П. Гланц и И. Королёва
Аудио 6: Russian: DTS, 48 kHz, 3/2 (L,C,R,l,r) + LFE ch, ~768 kbps avg | А. Гаврилов
Аудио 7: Russian: AC3, 48 kHz, 3/2 (L,C,R,l,r) + LFE ch, ~384 kbps avg | В. Горчаков
Аудио 8: Russian: AC3, 48 kHz, 3/2 (L,C,R,l,r) + LFE ch, ~448 kbps avg | К. Поздняков
Аудио 9: English: DTS, 48 kHz, 3/2 (L,C,R,l,r) + LFE ch, ~1536 kbps avg | Original
Аудио 10: English: OGG, 48 kHz, 2/0 (L,R) ch, ~78 kbps avg |Commentary|

Скриншоты:
Изображение
Изображение
Изображение
Свернуть
MediaInfo:
General
Complete name : O:\Predator\Predator.2.1990.720p.BluRay.8xRus.2xEng.mkv
Format : Matroska
File size : 10.5 GiB
Duration : 1h 48mn
Overall bit rate : 13.9 Mbps
Encoded date : UTC 2012-06-21 09:16:37
Writing application : mkvmerge v5.6.0 ('Kenya Kane') built on May 27 2012 16:44:04
Writing library : libebml v1.2.3 + libmatroska v1.3.0
Cover : Yes / Yes

Video
ID : 1
Format : AVC
Format/Info : Advanced Video Codec
Format profile : High@L4.1
Format settings, CABAC : Yes
Format settings, ReFrames : 9 frames
Muxing mode : Container profile=Unknown@4.1
Codec ID : V_MPEG4/ISO/AVC
Duration : 1h 47mn
Bit rate : 6 879 Kbps
Width : 1 280 pixels
Height : 694 pixels
Display aspect ratio : 16:9
Frame rate : 23.976 fps
Resolution : 8 bits
Colorimetry : 4:2:0
Scan type : Progressive
Bits/(Pixel*Frame) : 0.323
Stream size : 5.18 GiB (49%)
Writing library : x264 core 125 r2200kMod 999b753
Encoding settings : cabac=1 / ref=9 / deblock=1:-3:-3 / analyse=0x3:0x113 / me=umh / subme=11 / psy=1 / fade_compensate=0.00 / psy_rd=0.95:0.00 / mixed_ref=1 / me_range=48 / chroma_me=1 / trellis=2 / 8x8dct=1 / cqm=0 / deadzone=21,11 / fast_pskip=1 / chroma_qp_offset=-2 / threads=12 / lookahead_threads=2 / sliced_threads=0 / nr=0 / decimate=1 / interlaced=0 / bluray_compat=0 / constrained_intra=0 / bframes=7 / b_pyramid=2 / b_adapt=2 / b_bias=0 / direct=1 / weightb=1 / open_gop=0 / weightp=2 / keyint=250 / keyint_min=23 / scenecut=40 / intra_refresh=0 / rc_lookahead=40 / rc=crf / mbtree=0 / crf=17.5000 / qcomp=0.75 / qpmin=0 / qpmax=69 / qpstep=4 / vbv_maxrate=50000 / vbv_bufsize=62500 / crf_max=0.0 / nal_hrd=none / ip_ratio=1.40 / pb_ratio=1.30 / aq=3:0.85
Matrix coefficients : BT.709-5, BT.1361, IEC 61966-2-4 709, SMPTE RP177

Audio #1
ID : 2
Format : DTS
Format/Info : Digital Theater Systems
Codec ID : A_DTS
Duration : 1h 48mn
Bit rate mode : Constant
Bit rate : 755 Kbps
Channel(s) : 6 channels
Channel positions : Front: L C R, Surround: L R, LFE
Sampling rate : 48.0 KHz
Resolution : 24 bits
Stream size : 583 MiB (5%)
Title : DTS 5.1 @ 768 kbps - Дублированный, Blu-ray CEE
Language : Russian

Audio #2
ID : 3
Format : DTS
Format/Info : Digital Theater Systems
Codec ID : A_DTS
Duration : 1h 48mn
Bit rate mode : Constant
Bit rate : 755 Kbps
Channel(s) : 6 channels
Channel positions : Front: L C R, Surround: L R, LFE
Sampling rate : 48.0 KHz
Resolution : 24 bits
Stream size : 583 MiB (5%)
Title : DTS 5.1 @ 768 kbps - Многоголосый, R5
Language : Russian

Audio #3
ID : 4
Format : AC-3
Format/Info : Audio Coding 3
Codec ID : A_AC3
Duration : 1h 48mn
Bit rate mode : Constant
Bit rate : 384 Kbps
Channel(s) : 6 channels
Channel positions : Front: L C R, Surround: L R, LFE
Sampling rate : 48.0 KHz
Stream size : 297 MiB (3%)
Title : AC3 5.1 @ 384 kbps - Многоголосый, Киномания
Language : Russian

Audio #4
ID : 5
Format : AC-3
Format/Info : Audio Coding 3
Codec ID : A_AC3
Duration : 1h 48mn
Bit rate mode : Constant
Bit rate : 192 Kbps
Channel(s) : 2 channels
Channel positions : L R
Sampling rate : 48.0 KHz
Stream size : 148 MiB (1%)
Title : AC3 2.0 @ 192 kbps - Многоголосый, ОРТ
Language : Russian

Audio #5
ID : 6
Format : DTS
Format/Info : Digital Theater Systems
Codec ID : A_DTS
Duration : 1h 48mn
Bit rate mode : Constant
Bit rate : 1 510 Kbps
Channel(s) : 6 channels
Channel positions : Front: L C R, Surround: L R, LFE
Sampling rate : 48.0 KHz
Resolution : 24 bits
Stream size : 1.14 GiB (11%)
Title : DTS 5.1 @ 1536 kbps - Двухголосый, П. Гланц, И. Королёва
Language : Russian

Audio #6
ID : 7
Format : DTS
Format/Info : Digital Theater Systems
Codec ID : A_DTS
Duration : 1h 48mn
Bit rate mode : Constant
Bit rate : 755 Kbps
Channel(s) : 6 channels
Channel positions : Front: L C R, Surround: L R, LFE
Sampling rate : 48.0 KHz
Resolution : 24 bits
Stream size : 583 MiB (5%)
Title : DTS 5.1 @ 768 kbps - Одноголосый, А. Гаврилов
Language : Russian

Audio #7
ID : 8
Format : AC-3
Format/Info : Audio Coding 3
Codec ID : A_AC3
Duration : 1h 48mn
Bit rate mode : Constant
Bit rate : 384 Kbps
Channel(s) : 6 channels
Channel positions : Front: L C R, Surround: L R, LFE
Sampling rate : 48.0 KHz
Stream size : 297 MiB (3%)
Title : AC3 5.1 @ 384 kbps - Одноголосый, В. Горчаков
Language : Russian

Audio #8
ID : 9
Format : AC-3
Format/Info : Audio Coding 3
Codec ID : A_AC3
Duration : 1h 48mn
Bit rate mode : Constant
Bit rate : 448 Kbps
Channel(s) : 6 channels
Channel positions : Front: L C R, Surround: L R, LFE
Sampling rate : 48.0 KHz
Stream size : 346 MiB (3%)
Title : AC3 5.1 @ 448 kbps - Одноголосый, К. Поздняков
Language : Russian

Audio #9
ID : 10
Format : DTS
Format/Info : Digital Theater Systems
Codec ID : A_DTS
Duration : 1h 48mn
Bit rate mode : Constant
Bit rate : 1 510 Kbps
Channel(s) : 6 channels
Channel positions : Front: L C R, Surround: L R, LFE
Sampling rate : 48.0 KHz
Resolution : 24 bits
Stream size : 1.14 GiB (11%)
Title : DTS 5.1 @ 1536 kbps

Audio #10
ID : 11
Format : Vorbis
Format settings, Floor : 1
Codec ID : A_VORBIS
Duration : 1h 48mn
Bit rate mode : Constant
Bit rate : 80.0 Kbps
Channel(s) : 2 channels
Sampling rate : 48.0 KHz
Stream size : 61.8 MiB (1%)
Title : Vorbis 2.0 @ 78 kbps - Commentary
Writing library : aoTuV 20110424 (UTC 2011-04-24)

Text #1
ID : 12
Format : UTF-8
Codec ID : S_TEXT/UTF8
Codec ID/Info : UTF-8 Plain Text
Title : forced
Language : Russian

Text #2
ID : 13
Format : UTF-8
Codec ID : S_TEXT/UTF8
Codec ID/Info : UTF-8 Plain Text
Language : Russian

Text #3
ID : 14
Format : UTF-8
Codec ID : S_TEXT/UTF8
Codec ID/Info : UTF-8 Plain Text

Text #4
ID : 15
Format : UTF-8
Codec ID : S_TEXT/UTF8
Codec ID/Info : UTF-8 Plain Text
Title : Commentary
Language : Russian

Menu
00:00:00.000 : en:War Zone
00:03:11.817 : en:A Force Of One
00:07:26.321 : en:Invisible Enemy
00:11:40.408 : en:Cut To Pieces
00:14:05.386 : en:Insubordination
00:16:03.337 : en:The Feds
00:18:57.970 : en:The New Guy
00:22:21.423 : en:Massacre
00:25:48.756 : en:The Devil Came for Them
00:29:03.867 : en:Keyes' Warning
00:30:20.193 : en:Surveillance
00:32:41.209 : en:Danny and the Demon
00:36:39.864 : en:Now It's Personal
00:41:02.001 : en:A Forensic Mystery
00:43:00.411 : en:King Willie
00:47:17.877 : en:Death of a King
00:51:13.821 : en:The Watcher
00:53:43.053 : en:Subway Assassin
00:58:14.408 : en:Mercy
01:01:18.717 : en:Path of the Predator
01:04:46.591 : en:The Alien Hunter
01:07:36.261 : en:Killer In the Cold
01:15:41.871 : en:Keyes Stands Alone
01:16:49.522 : en:Hunter and Hunted
01:19:23.217 : en:One Ugly...
01:22:01.792 : en:Man Against Alien
01:26:10.916 : en:First Aid
01:31:32.195 : en:The Trophy Room
01:33:38.321 : en:Death Blow
01:36:19.440 : en:The Honor Guard
01:37:54.577 : en:Last Man Standing
01:41:48.602 : en:End Titles

Свернуть
Свернуть
Чужой против Хищника / AVP: Alien vs. Predator (2004) BDRip



Чужой против Хищника / AVP: Alien vs. Predator (2004) BDRip

Изображение


Русское название: Чужой против Хищника
Оригинальное название: AVP: Alien vs. Predator
Выпущено: Германия, США, Великобритания, Чехия
Год выпуска: 2004
Жанр: Ужасы, Фантастика, Боевик

Описание фильма:
Наши дни. Группа ученых отправляется в Антарктиду, чтобы отыскать колыбель цивилизации, царившей на Земле многие тысячелетия назад. Под толщей льда они находят пирамиды, в которых обнаруживают человеческие скелеты и следы жизнедеятельности чужих.
Однако они еще не знают, что уже находятся под колпаком у хозяев этого города — хищников, и их дни сочтены. Человеческая приманка поможет хищникам, наконец, завершить войну двух космических цивилизаций…

Режиссер: Пол У. С. Андерсон
Актеры: Санаа Лэтэн, Рауль Бова, Лэнс Хенриксен, Ивен Бремнер, Колин Сэлмон, Томми Флэнеган, Джозеф Рай, Агат Де Ла Булае, Карстен Норгаард, Сэм Тротон, Petr Jákl, Pavel Bezdek, Киран Бью, Карстен Войт, Jan Pavel Filipensky, Адриан Буше, Энди Лукас, Лиз Мэй Брайс, Гленн Сонрой, Эйн МакКарти, Карима Эдебайб

Продолжительность: 01:48:40
Перевод: Профессиональный |полное дублирование| + Профессиональный многоголосый закадровый |Киномания| + Одноголосый закадровый |А. Гаврилов|
Субтитры: Russian (на не переведенные моменты), Russian, Russian («Киномания»), English

Видеокодек: MPEG-4 AVC/H.264
Видео: 1280x544p,~4 080 Kbps
Качество видео: BDRip
Аудиокодек: DTS+AC3

Аудио 1: Russian: 48 kHz, DTS, 3/2 (L,C,R,l,r) + LFE ch, ~768.00 kbps | Дубляж, Blu-ray CEE
Аудио 2: Russian: 48 kHz, AC3, 3/2 (L,C,R,l,r) + LFE ch, ~448.00 kbps avg | Киномания
Аудио 3: Russian: 48 kHz, DTS, 3/2 (L,C,R,l,r) + LFE ch, ~1536.00 kbps avg | А. Гаврилов
Аудио 4: English: 48 kHz, DTS, 3/2 (L,C,R,l,r) + LFE ch, ~1536.00 kbps avg | Original
Аудио 5: English: 48 kHz, AC3, 2/0 (L,R) ch, ~224.00 kbps avg | Commentary by Paul W.S. Andreson, Lance Henriksen & Sanaa Lathan
Аудио 6: English: 48 kHz, AC3, 2/0 (L,R) ch, ~224.00 kbps avg | Commentary by Alec Gillis, Tom Woddruff & John Bruno




Скриншоты:
Изображение
Изображение
Изображение
Свернуть
MediaInfo:
General
Complete name : O:\Predator\AVP.Alien.vs.Predator.Unrated.2004.BluRay.720p.DTS.Rus.Eng.mkv
Format : Matroska
File size : 6.78 GiB
Duration : 1h 48mn
Overall bit rate : 8 928 Kbps
Encoded date : UTC 2010-03-17 08:29:30
Writing application : mkvmerge v3.2.0 ('Beginnings') built on Feb 12 2010 16:46:17
Writing library : libebml v0.7.9 + libmatroska v0.8.1

Video
ID : 1
Format : AVC
Format/Info : Advanced Video Codec
Format profile : High@L4.1
Format settings, CABAC : Yes
Format settings, ReFrames : 10 frames
Muxing mode : Container profile=Unknown@4.1
Codec ID : V_MPEG4/ISO/AVC
Duration : 1h 48mn
Bit rate : 4 080 Kbps
Nominal bit rate : 4 242 Kbps
Width : 1 280 pixels
Height : 544 pixels
Display aspect ratio : 2.35:1
Frame rate : 23.976 fps
Resolution : 8 bits
Colorimetry : 4:2:0
Scan type : Progressive
Bits/(Pixel*Frame) : 0.244
Stream size : 3.09 GiB (46%)
Writing library : x264 core 84 r1400M 20fa784
Encoding settings : cabac=1 / ref=10 / deblock=1:-3:-3 / analyse=0x3:0x113 / me=umh / subme=9 / psy=1 / psy_rd=1.0:0.0 / mixed_ref=1 / me_range=32 / chroma_me=1 / trellis=2 / 8x8dct=1 / cqm=0 / deadzone=21,11 / fast_pskip=0 / chroma_qp_offset=-2 / threads=12 / sliced_threads=0 / nr=0 / decimate=0 / mbaff=0 / constrained_intra=0 / bframes=8 / b_pyramid=2 / b_adapt=2 / b_bias=0 / direct=3 / wpredb=1 / wpredp=2 / keyint=240 / keyint_min=24 / scenecut=40 / intra_refresh=0 / rc_lookahead=80 / rc=2pass / mbtree=1 / bitrate=4242 / ratetol=1.0 / qcomp=0.80 / qpmin=10 / qpmax=51 / qpstep=4 / cplxblur=20.0 / qblur=0.5 / vbv_maxrate=50000 / vbv_bufsize=62500 / ip_ratio=1.40 / aq=1:0.80 / pulldown=0 / nal_hrd=0
Language : English

Audio #1
ID : 2
Format : DTS
Format/Info : Digital Theater Systems
Codec ID : A_DTS
Duration : 1h 48mn
Bit rate mode : Constant
Bit rate : 755 Kbps
Channel(s) : 6 channels
Channel positions : Front: L C R, Surround: L R, LFE
Sampling rate : 48.0 KHz
Resolution : 24 bits
Stream size : 586 MiB (8%)
Title : DTS 5.1 768 Kbps [Дубляж, BluRay CEE]
Language : Russian

Audio #2
ID : 3
Format : AC-3
Format/Info : Audio Coding 3
Codec ID : A_AC3
Duration : 1h 48mn
Bit rate mode : Constant
Bit rate : 448 Kbps
Channel(s) : 6 channels
Channel positions : Front: L C R, Surround: L R, LFE
Sampling rate : 48.0 KHz
Stream size : 348 MiB (5%)
Title : AC3 5.1 448 Kbps [Многоголосый, «Киномания»]
Language : Russian

Audio #3
ID : 4
Format : DTS
Format/Info : Digital Theater Systems
Codec ID : A_DTS
Duration : 1h 48mn
Bit rate mode : Constant
Bit rate : 1 510 Kbps
Channel(s) : 6 channels
Channel positions : Front: L C R, Surround: L R, LFE
Sampling rate : 48.0 KHz
Resolution : 24 bits
Stream size : 1.15 GiB (17%)
Title : DTS 5.1 1536 Kbps [Одноголосый, А.Гаврилов]
Language : Russian

Audio #4
ID : 5
Format : DTS
Format/Info : Digital Theater Systems
Codec ID : A_DTS
Duration : 1h 48mn
Bit rate mode : Constant
Bit rate : 1 510 Kbps
Channel(s) : 6 channels
Channel positions : Front: L C R, Surround: L R, LFE
Sampling rate : 48.0 KHz
Resolution : 24 bits
Stream size : 1.15 GiB (17%)
Title : DTS 5.1 1536 Kbps [Оригинал]
Language : English

Audio #5
ID : 6
Format : AC-3
Format/Info : Audio Coding 3
Codec ID : A_AC3
Duration : 1h 48mn
Bit rate mode : Constant
Bit rate : 224 Kbps
Channel(s) : 2 channels
Channel positions : L R
Sampling rate : 48.0 KHz
Stream size : 174 MiB (3%)
Title : AC3 2.0 224 Kbps [Commentary by P.Andreson, L.Henriksen & S.Lathan]
Language : English

Audio #6
ID : 7
Format : AC-3
Format/Info : Audio Coding 3
Format profile : Dolby Digital
Codec ID : A_AC3
Duration : 1h 48mn
Bit rate mode : Constant
Bit rate : 224 Kbps
Channel(s) : 2 channels
Channel positions : L R
Sampling rate : 48.0 KHz
Stream size : 174 MiB (3%)
Title : AC3 2.0 224 Kbps [Commentary by A.Gillis, T.Woddruff & J.Bruno]
Language : English

Text #1
ID : 8
Format : UTF-8
Codec ID : S_TEXT/UTF8
Codec ID/Info : UTF-8 Plain Text
Language : Russian

Text #2
ID : 9
Format : UTF-8
Codec ID : S_TEXT/UTF8
Codec ID/Info : UTF-8 Plain Text
Title : «Киномания»
Language : Russian

Text #3
ID : 10
Format : UTF-8
Codec ID : S_TEXT/UTF8
Codec ID/Info : UTF-8 Plain Text
Language : English
Свернуть
Свернуть
Чужие против Хищника: Реквием / Aliens vs. Predator Requiem (2007) BDRip


Чужие против Хищника: Реквием / Aliens vs. Predator Requiem [Extreme Unrated] (2007) BDRip

Изображение


Русское название: Чужие против Хищника: Реквием
Оригинальное название: Aliens vs. Predator Requiem [Extreme Unrated]
Страна: США
Год выпуска: 2007
Жанр: Ужасы, Фантастика, Боевик

Описание фильма:
Атакованный «Предалиеном», жутким гибридом Хищника и Чужого, корабль Хищников терпит крушение в лесах, окружающих маленький техасский городок. И пока на сигнал о помощи, посланный в момент падения, спешит подкрепление, Чужие успевают инфицировать половину населения города.

Режиссер: Колин Штраус, Грег Штраус
Актеры: Стивен Паскуале, Рейко Эйлсворт, Джон Ортиз, Джонни Льюис, Эриель Гейд, Кристен Хагер, Сэм Траммелл, Роберт Джой, Дэвид Петкау, Том Вудрафф мл.

Продолжительность: 01:41:02
Перевод: Профессиональный |полное дублирование|
Оригинальная аудиодорожка: английский
Субтитры: нет

Видеокодек: MPEG-4 AVC/H.264
Видео: 1280x528,~4 547 Kbps
Качество видео: BDRip
Аудиокодек: DTS

Аудио 1: Русский DTS 5.1, 768 kbps
Аудио 2: Aнглийский DTS 5.1, 1536 kbps


Скриншоты
Изображение
Изображение
Изображение
Свернуть
MediaInfo:
General
Complete name : O:\Blu Ray 4\Predator\Aliens vs. Predator Requiem [Unrated] 720p.mkv
Format : Matroska
File size : 4.91 GiB
Duration : 1h 41mn
Overall bit rate : 6 949 Kbps
Movie name : -=HANSMER=-
Encoded date : UTC 2008-04-11 21:01:20
Writing application : mkvmerge v2.2.0 ('Turn It On Again') built on Mar 4 2008 13:20:25
Writing library : libebml v0.7.7 + libmatroska v0.8.1

Video
ID : 1
Format : AVC
Format/Info : Advanced Video Codec
Format profile : High@L5.1
Format settings, CABAC : Yes
Format settings, ReFrames : 5 frames
Muxing mode : Container profile=Unknown@5.1
Codec ID : V_MPEG4/ISO/AVC
Duration : 1h 40mn
Bit rate : 4 547 Kbps
Nominal bit rate : 4 683 Kbps
Width : 1 280 pixels
Height : 528 pixels
Display aspect ratio : 2.40:1
Frame rate : 23.976 fps
Resolution : 8 bits
Colorimetry : 4:2:0
Scan type : Progressive
Bits/(Pixel*Frame) : 0.281
Stream size : 3.21 GiB (65%)
Writing library : x264 core 58 r798M 17e5dac
Encoding settings : cabac=1 / ref=5 / deblock=1:0:0 / analyse=0x3:0x113 / me=umh / subme=7 / me-prepass=0 / brdo=1 / mixed_ref=1 / me_range=16 / chroma_me=1 / trellis=1 / 8x8dct=1 / cqm=0 / deadzone=21,11 / chroma_qp_offset=0 / threads=6 / nr=0 / decimate=1 / mbaff=0 / bframes=3 / b_pyramid=1 / b_adapt=1 / b_bias=0 / direct=1 / wpredb=1 / bime=1 / keyint=250 / keyint_min=25 / scenecut=40(pre) / rc=2pass / bitrate=4683 / ratetol=1.0 / rceq='blurCplx^(1-qComp)' / qcomp=1.00 / qpmin=10 / qpmax=51 / qpstep=4 / cplxblur=20.0 / qblur=0.5 / ip_ratio=1.40 / pb_ratio=1.30 / aq=1:0.5:13.0
Language : English

Audio #1
ID : 2
Format : DTS
Format/Info : Digital Theater Systems
Codec ID : A_DTS
Duration : 1h 41mn
Bit rate mode : Constant
Bit rate : 755 Kbps
Channel(s) : 6 channels
Channel positions : Front: L C R, Surround: L R, LFE
Sampling rate : 48.0 KHz
Resolution : 24 bits
Stream size : 546 MiB (11%)
Language : Russian

Audio #2
ID : 3
Format : DTS
Format/Info : Digital Theater Systems
Codec ID : A_DTS
Duration : 1h 41mn
Bit rate mode : Constant
Bit rate : 1 510 Kbps
Channel(s) : 6 channels
Channel positions : Front: L C R, Surround: L R, LFE
Sampling rate : 48.0 KHz
Resolution : 24 bits
Stream size : 1.07 GiB (22%)
Language : English

Свернуть
Свернуть
Хищники / Predators (2010) BDRip



Хищники / Predators (2010) BDRip

Изображение


Русское название: Хищники
Оригинальное название: Predators
Выпущено: США
Год выпуска: 2010
Жанр: Фантастика, Приключения, Боевик

Описание фильма:
Наемник Ройс невольно вынужден возглавить группу профессионалов, выполняющих загадочную миссию на неизвестной планете. За исключением опального доктора все они - хладнокровные убийцы: наемники, гангстеры, осужденные и участники отрядов смерти людские «хищники». Но когда их начинает систематически преследовать и истреблять невообразимое чудовище, становится очевидно, что теперь они в роли своих жертв.

Режиссер: Нимрод Антал
Актеры: Эдриан Броуди, Тофер Грейс, Алиси Брага, Уолтон Гоггинс, Олег Тактаров, Лоренс Фишбёрн, Дэнни Трехо, Луис Одзава Чангчьен, Махершалалхашбаз Али, Кэри Джонс

Продолжительность: 01:46:53
Перевод:Профессиональный |полное дублирование| + 2x Одноголосый закадровый |А.Гаврилов, Д.Строев|
Оригинальная аудиодорожка: английский
Субтитры: Russian, Ukrainian, English, Russian |комментарии|

Видеокодек: MPEG-4 AVC/H.264
Видео: 1280x544p,~7281 kbps
Качество видео: BDRip
Аудиокодек: DTS+AC3

Аудио 1: Russian: DTS, 48 kHz, 3/2 (L,C,R,l,r) + LFE ch, ~756.00 kbps avg | Дубляж, Blu-ray CEE
Аудио 2: Ukrainian: AC3, 48 kHz, 3/2 (L,C,R,l,r) + LFE ch, ~448.00 kbps avg | Дубляж, Blu-ray CEE
Аудио 3: Russian: DTS, 48 kHz, 3/2 (L,C,R,l,r) + LFE ch, ~1536.00 kbps avg | А.Гаврилов
Аудио 4: Russian: DTS, 48 kHz, 3/2 (L,C,R,l,r) + LFE ch, ~1536.00 kbps avg | Д.Строев
Аудио 5: English: DTS, 48 kHz, 3/2 (L,C,R,l,r) + LFE ch, ~1536.00 kbps avg | Original
Аудио 6: English: AC3, 48 kHz, 2/0 (L,R) ch, ~224.00 kbps avg | Комментарий Роберта Родригеса


Скриншоты:
Изображение
Изображение
Изображение
Свернуть
MediaInfo:
General
Complete name : O:\Predator\Predators.2010.720p.BluRay.DTS.Rus.Ukr.Eng.mkv
Format : Matroska
File size : 9.89 GiB
Duration : 1h 46mn
Overall bit rate : 13.2 Mbps
Encoded date : UTC 2010-11-10 14:18:11
Writing application : mkvmerge v3.3.0 ('Language') built on Mar 24 2010 14:59:24
Writing library : libebml v0.8.0 + libmatroska v0.9.0
Cover : Yes / Yes / Yes

Video
ID : 1
Format : AVC
Format/Info : Advanced Video Codec
Format profile : High@L4.1
Format settings, CABAC : Yes
Format settings, ReFrames : 7 frames
Muxing mode : Container profile=Unknown@4.1
Codec ID : V_MPEG4/ISO/AVC
Duration : 1h 46mn
Bit rate : 7 029 Kbps
Nominal bit rate : 7 281 Kbps
Width : 1 280 pixels
Height : 544 pixels
Display aspect ratio : 2.35:1
Frame rate : 23.976 fps
Resolution : 8 bits
Colorimetry : 4:2:0
Scan type : Progressive
Bits/(Pixel*Frame) : 0.421
Stream size : 5.24 GiB (53%)
Writing library : x264 core 104 r1677 19df41a
Encoding settings : cabac=1 / ref=8 / deblock=1:-3:-3 / analyse=0x3:0x133 / me=tesa / subme=10 / psy=1 / psy_rd=1.10:0.00 / mixed_ref=1 / me_range=24 / chroma_me=1 / trellis=2 / 8x8dct=1 / cqm=0 / deadzone=21,11 / fast_pskip=0 / chroma_qp_offset=-2 / threads=6 / sliced_threads=0 / nr=0 / decimate=0 / interlaced=0 / constrained_intra=0 / bframes=6 / b_pyramid=1 / b_adapt=2 / b_bias=0 / direct=3 / weightb=1 / open_gop=0 / weightp=2 / keyint=250 / keyint_min=23 / scenecut=40 / intra_refresh=0 / rc=2pass / mbtree=0 / bitrate=7281 / ratetol=1.0 / qcomp=0.60 / qpmin=10 / qpmax=30 / qpstep=4 / cplxblur=20.0 / qblur=0.5 / ip_ratio=1.40 / pb_ratio=1.30 / aq=1:0.70
Language : English

Audio #1
ID : 2
Format : DTS
Format/Info : Digital Theater Systems
Codec ID : A_DTS
Duration : 1h 46mn
Bit rate mode : Constant
Bit rate : 755 Kbps
Channel(s) : 6 channels
Channel positions : Front: L C R, Surround: L R, LFE
Sampling rate : 48.0 KHz
Resolution : 24 bits
Stream size : 577 MiB (6%)
Title : DTS 5.1 768 Kbps [Дубляж, BluRay CEE]
Language : Russian

Audio #2
ID : 3
Format : AC-3
Format/Info : Audio Coding 3
Codec ID : A_AC3
Duration : 1h 46mn
Bit rate mode : Constant
Bit rate : 448 Kbps
Channel(s) : 6 channels
Channel positions : Front: L C R, Surround: L R, LFE
Sampling rate : 48.0 KHz
Stream size : 342 MiB (3%)
Title : AC3 5.1 448 Kbps [Дубляж, BluRay CEE]
Language : Ukrainian

Audio #3
ID : 4
Format : DTS
Format/Info : Digital Theater Systems
Codec ID : A_DTS
Duration : 1h 46mn
Bit rate mode : Constant
Bit rate : 1 510 Kbps
Channel(s) : 6 channels
Channel positions : Front: L C R, Surround: L R, LFE
Sampling rate : 48.0 KHz
Resolution : 24 bits
Stream size : 1.13 GiB (11%)
Title : DTS 5.1 1536 Kbps [Одноголосый, А.Гаврилов]
Language : Russian

Audio #4
ID : 5
Format : DTS
Format/Info : Digital Theater Systems
Codec ID : A_DTS
Duration : 1h 46mn
Bit rate mode : Constant
Bit rate : 1 510 Kbps
Channel(s) : 6 channels
Channel positions : Front: L C R, Surround: L R, LFE
Sampling rate : 48.0 KHz
Resolution : 24 bits
Stream size : 1.13 GiB (11%)
Title : DTS 5.1 1536 Kbps [Одноголосый, Д.Строев]
Language : Russian

Audio #5
ID : 6
Format : DTS
Format/Info : Digital Theater Systems
Codec ID : A_DTS
Duration : 1h 46mn
Bit rate mode : Constant
Bit rate : 1 510 Kbps
Channel(s) : 6 channels
Channel positions : Front: L C R, Surround: L R, LFE
Sampling rate : 48.0 KHz
Resolution : 24 bits
Stream size : 1.13 GiB (11%)
Title : DTS 5.1 1536 Kbps [Оригинал]
Language : English

Audio #6
ID : 7
Format : AC-3
Format/Info : Audio Coding 3
Codec ID : A_AC3
Duration : 1h 46mn
Bit rate mode : Constant
Bit rate : 224 Kbps
Channel(s) : 2 channels
Channel positions : L R
Sampling rate : 48.0 KHz
Stream size : 171 MiB (2%)
Title : Комментарий Роберта Родригеса и Нимрода Антала
Language : English

Text #1
ID : 8
Format : UTF-8
Codec ID : S_TEXT/UTF8
Codec ID/Info : UTF-8 Plain Text
Language : Russian

Text #2
ID : 9
Format : UTF-8
Codec ID : S_TEXT/UTF8
Codec ID/Info : UTF-8 Plain Text
Language : Ukrainian

Text #3
ID : 10
Format : UTF-8
Codec ID : S_TEXT/UTF8
Codec ID/Info : UTF-8 Plain Text
Title : Комментарий Роберта Родригеса и Нимрода Антала
Language : Russian

Text #4
ID : 11
Format : ASS
Codec ID : S_TEXT/ASS
Codec ID/Info : Advanced Sub Station Alpha
Language : English

Text #5
ID : 12
Format : ASS
Codec ID : S_TEXT/ASS
Codec ID/Info : Advanced Sub Station Alpha
Language : Spanish

Text #6
ID : 13
Format : ASS
Codec ID : S_TEXT/ASS
Codec ID/Info : Advanced Sub Station Alpha
Language : Portuguese

Text #7
ID : 14
Format : ASS
Codec ID : S_TEXT/ASS
Codec ID/Info : Advanced Sub Station Alpha
Language : Romanian

Menu
00:00:00.000 : :00:00:00.000
00:05:27.035 : :00:05:27.035
00:07:57.394 : :00:07:57.394
00:13:33.521 : :00:13:33.521
00:17:26.587 : :00:17:26.587
00:20:02.410 : :00:20:02.410
00:23:46.300 : :00:23:46.300
00:26:19.119 : :00:26:19.119
00:31:34.518 : :00:31:34.518
00:34:56.511 : :00:34:56.511
00:38:24.719 : :00:38:24.719
00:41:57.056 : :00:41:57.056
00:46:12.979 : :00:46:12.979
00:49:57.786 : :00:49:57.786
00:53:27.955 : :00:53:27.955
00:57:43.126 : :00:57:43.126
01:02:11.853 : :01:02:11.853
01:05:48.903 : :01:05:48.903
01:09:38.758 : :01:09:38.758
01:14:16.994 : :01:14:16.994
01:16:25.539 : :01:16:25.539
01:19:26.929 : :01:19:26.929
01:21:34.473 : :01:21:34.473
01:23:51.902 : :01:23:51.902
01:27:33.707 : :01:27:33.707
01:30:48.234 : :01:30:48.234
01:34:12.564 : :01:34:12.564
01:41:17.697 : :01:41:17.697
Свернуть
Свернуть


Последний раз редактировалось OziFaker 2012-11-27 09:59, всего редактировалось 3 раз(а).
Не в сети
Профиль  
 Добавлено: 2012-11-21 10:35 (спустя 13 часов)
Аватара пользователя
Стаж: 7 лет 2 месяца
Сообщений: 7167
Спасибок: 82019
Лайков: 2438
:bra_vo:
Не в сети
Профиль  
 Добавлено: 2013-06-22 11:29 (спустя 7 месяцев)
Стаж: 7 лет 4 месяца
Сообщений: 165
Лайков: 6
что за хрень со звуком в Реквием? Постоянно то русский, то английский.
Не в сети
Профиль  
 Добавлено: 2013-08-21 13:49 (спустя 1 месяц 29 дней)
Top-releaser
Аватара пользователя
Стаж: 7 лет 4 месяца
Возраст: 38
Сообщений: 5350
Спасибок: 10080
Лайков: 2938
Не, в коллекцию тока два первых фильма, остальное-шлак... :ze_va_et:
Не в сети
Профиль  
Начать новую темуОтветить на тему  [ Сообщений: 4 ] 
Вы не можете начинать темы
Вы не можете отвечать на сообщения
Вы не можете редактировать свои сообщения
Вы не можете удалять свои сообщения