Правила форума

  • В этом разделе создание новых тем Запрещено.
  • Для создания новых тем пользуйтесь Корневым разделом DVD и HD фильмы.
Начать новую темуОтветить на тему  [ Сообщений: 7 ] 
Торрент файл
Размер: 42.26 GB • Зарегистрирован: 4 года 10 месяцев • Статус: Проверено
Скачан: 97 раз • Желающих скачать: 0 • Поблагодарили: 51 раз
 Раздают: 0  |  0 KB/s  ]   Качают: 0  |  0 KB/s  ] 
 Полного источника не было 5 дней 
Сообщения
 Добавлено: 2012-01-06 18:54
Top-releaser
Аватара пользователя
Стаж: 8 лет 9 месяцев
Сообщений: 479
Спасибок: 20187
Лайков: 16
Хищник, Хищник 2, Хищники

Изображение

1987 - Хищник / Predator

Изображение

Хищник

Predator


«In this movie, Arnold will experience every meaning of the word '' Pain ''.»


Год выпуска: 1987
Страна: Изображение США; Amercent Films
Жанр: Фантастика, боевик, триллер, приключения
Продолжительность: 01:46:36
Перевод: Профессиональный (дублированный), Оригинал
Субтитры: Русские, английские

Режиссёр: Джон МакТирнан / John McTiernan

В ролях: Арнольд Шварценеггер, Карл Уэверз, Элпидия Каррильо, Билл Дьюк, Джесси Вентура, Сонни Лендхэм, Ричард Чавес, Р.Г. Армстронг, Шэйн Блэк, Кевин Питер Холл, Steve Boyum, Уильям Х. Бертон, Генри Кинги, Свен-Оле Торсен

Описание: Американский вертолет был сбит партизанами в Южной Америке. Оставшийся в живых экипаж находится в плену. Центральное разведывательное управление США бросает свои лучшие силы для освобождения американских граждан.

Элитная группа спецназа во главе с Датчем была заброшена в южноамериканские джунгли. Операция шла по плану до тех пор, пока они не наткнулись на поляну с растерзанными телами, опознать которые не представлялось возможным. Только по обрывкам униформы стало понятно, что это и есть экипаж сбитого вертолета.

Понимая, что операция провалена, Датч отдает приказ двигаться к точке эвакуации. По дороге становится ясно, что что-то невидимое, сливающееся с лесом, охотится на них. Охотится, методично убивая одного за другим, забирая себе страшный трофей — череп с позвоночником. В живых остается один Датч, готовый сразиться с инопланетным охотником.



Качество: BDRip 1080p
Формат: MKV

Видео: AVC, 1920 x 1040 (1.846) at 23.976 fps, 11,4 Мбит/сек

Аудио 1: DTS at 755 Кбит/сек 6 канала(ов), 48,0 КГц [Дубляж]
Аудио 2: DTS at 1510 Кбит/сек 6 канала(ов), 48,0 КГц [Оригинал]
Аудио : AC-3 at 448 Кбит/сек 6 канала(ов), 48,0 КГц [Д. Пучков (Гоблин); А. Гаврилов; Гемини]
Аудио : AC-3 at 384 Кбит/сек 6 канала(ов), 48,0 КГц [Киномания]
Аудио : AC-3 at 256 Кбит/сек 2 канала(ов), 48,0 КГц [Ю. Живов; Двуголосый; В. Горчаков; В. Дохалов; Б. Федоров; М. Латышев; Г. Либергал; ОРТ ]
Раздача: Изображение

Изображение
MediaInfo

Общее
Уникальный идентификатор : 223021205591850589631253820955553546010 (0xA7C8526206D5B11482C7EAD6ABEDBF1A)
Полное имя : C:\Users\Домашний\Desktop\Predator.1-3.BDRip.1080p\Predator.1.BDRip.1080p.mkv
Формат : Matroska
Размер файла : 12,9 Гбайт
Продолжительность : 1 ч. 46 м.
Общий поток : 17,4 Мбит/сек
Название фильма : Predator [Ultimate Hunter Edition] CEE BDRip 1080p_HDReactor.org
Дата кодирования : UTC 2010-06-14 14:05:41
Программа кодирования : mkvmerge v3.4.0 ('Rapunzel') сборка от May 15 2010 09:38:20
Библиотека кодирования : libebml v0.8.0 + libmatroska v0.9.0

Видео
Идентификатор : 1
Формат : AVC
Формат/Информация : Advanced Video Codec
Профиль формата : High@L4.1
Параметр CABAC формата : Да
Параметр ReFrames формата : 3 кадры
Идентификатор кодека : V_MPEG4/ISO/AVC
Продолжительность : 1 ч. 46 м.
Вид битрейта : Переменный
Битрейт : 11,4 Мбит/сек
Максимальный битрейт : 40,0 Мбит/сек
Ширина : 1920 пикс.
Высота : 1040 пикс.
Соотношение сторон : 16:9
Частота кадров : 23,976 кадр/сек
Цветовое пространство : YUV
Подвыборка цветности : 4:2:0
Битовая глубина : 8 бит
Тип развёртки : Прогрессивная
Бит/(Пиксели*Кадры) : 0.238
Размер потока : 8,18 Гбайт (63%)
Библиотека кодирования : x264 core 80 r1376M 3feaec2
Настройки программы : cabac=1 / ref=4 / deblock=1:-3:-3 / analyse=0x3:0x113 / me=umh / subme=7 / psy=1 / psy_rd=0.9:0.1 / mixed_ref=1 / me_range=32 / chroma_me=1 / trellis=2 / 8x8dct=1 / cqm=0 / deadzone=21,11 / fast_pskip=0 / chroma_qp_offset=-6 / threads=6 / sliced_threads=0 / slices=4 / nr=0 / decimate=0 / mbaff=0 / constrained_intra=0 / bframes=7 / b_pyramid=1 / b_adapt=2 / b_bias=0 / direct=1 / wpredb=1 / wpredp=2 / keyint=250 / keyint_min=25 / scenecut=40 / rc_lookahead=0 / rc=2pass / mbtree=0 / bitrate=11373 / ratetol=1.0 / qcomp=0.60 / qpmin=10 / qpmax=51 / qpstep=4 / cplxblur=20.0 / qblur=0.5 / vbv_maxrate=40000 / vbv_bufsize=30000 / ip_ratio=1.40 / pb_ratio=1.30 / aq=1:1.00
Язык : English

Аудио #1
Идентификатор : 2
Формат : DTS
Формат/Информация : Digital Theater Systems
Идентификатор кодека : A_DTS
Продолжительность : 1 ч. 46 м.
Вид битрейта : Постоянный
Битрейт : 755 Кбит/сек
Канал(ы) : 6 канала(ов)
Расположение каналов : Front: L C R, Side: L R, LFE
Частота : 48,0 КГц
Битовая глубина : 24 бит
Метод сжатия : С потерями
Размер потока : 575 Мбайт (4%)
Заголовок : Дубляж CEE
Язык : Russian

Аудио #2
Идентификатор : 3
Формат : DTS
Формат/Информация : Digital Theater Systems
Идентификатор кодека : A_DTS
Продолжительность : 1 ч. 46 м.
Вид битрейта : Постоянный
Битрейт : 1510 Кбит/сек
Канал(ы) : 6 канала(ов)
Расположение каналов : Front: L C R, Side: L R, LFE
Частота : 48,0 КГц
Битовая глубина : 24 бит
Метод сжатия : С потерями
Размер потока : 1,12 Гбайт (9%)
Заголовок : Оригинал
Язык : English

Аудио #3
Идентификатор : 4
Формат : AC-3
Формат/Информация : Audio Coding 3
Расширение режима : CM (complete main)
Идентификатор кодека : A_AC3
Продолжительность : 1 ч. 46 м.
Вид битрейта : Постоянный
Битрейт : 448 Кбит/сек
Канал(ы) : 6 канала(ов)
Расположение каналов : Front: L C R, Side: L R, LFE
Частота : 48,0 КГц
Битовая глубина : 16 бит
Метод сжатия : С потерями
Размер потока : 342 Мбайт (3%)
Заголовок : Д. Пучков (Гоблин)
Язык : Russian

Аудио #4
Идентификатор : 5
Формат : AC-3
Формат/Информация : Audio Coding 3
Расширение режима : CM (complete main)
Идентификатор кодека : A_AC3
Продолжительность : 1 ч. 46 м.
Вид битрейта : Постоянный
Битрейт : 448 Кбит/сек
Канал(ы) : 6 канала(ов)
Расположение каналов : Front: L C R, Side: L R, LFE
Частота : 48,0 КГц
Битовая глубина : 16 бит
Метод сжатия : С потерями
Размер потока : 342 Мбайт (3%)
Заголовок : А. Гаврилов
Язык : Russian

Аудио #5
Идентификатор : 6
Формат : AC-3
Формат/Информация : Audio Coding 3
Расширение режима : CM (complete main)
Идентификатор кодека : A_AC3
Продолжительность : 1 ч. 46 м.
Вид битрейта : Постоянный
Битрейт : 448 Кбит/сек
Канал(ы) : 6 канала(ов)
Расположение каналов : Front: L C R, Side: L R, LFE
Частота : 48,0 КГц
Битовая глубина : 16 бит
Метод сжатия : С потерями
Размер потока : 342 Мбайт (3%)
Заголовок : Гемини
Язык : Russian

Аудио #6
Идентификатор : 7
Формат : AC-3
Формат/Информация : Audio Coding 3
Расширение режима : CM (complete main)
Идентификатор кодека : A_AC3
Продолжительность : 1 ч. 46 м.
Вид битрейта : Постоянный
Битрейт : 384 Кбит/сек
Канал(ы) : 6 канала(ов)
Расположение каналов : Front: L C R, Side: L R, LFE
Частота : 48,0 КГц
Битовая глубина : 16 бит
Метод сжатия : С потерями
Размер потока : 293 Мбайт (2%)
Заголовок : Киномания
Язык : Russian

Аудио #7
Идентификатор : 8
Формат : AC-3
Формат/Информация : Audio Coding 3
Расширение режима : CM (complete main)
Идентификатор кодека : A_AC3
Продолжительность : 1 ч. 46 м.
Вид битрейта : Постоянный
Битрейт : 256 Кбит/сек
Канал(ы) : 2 канала(ов)
Расположение каналов : Front: L R
Частота : 48,0 КГц
Битовая глубина : 16 бит
Метод сжатия : С потерями
Размер потока : 195 Мбайт (1%)
Заголовок : Ю. Живов
Язык : Russian

Аудио #8
Идентификатор : 9
Формат : AC-3
Формат/Информация : Audio Coding 3
Расширение режима : CM (complete main)
Идентификатор кодека : A_AC3
Продолжительность : 1 ч. 46 м.
Вид битрейта : Постоянный
Битрейт : 256 Кбит/сек
Канал(ы) : 2 канала(ов)
Расположение каналов : Front: L R
Частота : 48,0 КГц
Битовая глубина : 16 бит
Метод сжатия : С потерями
Размер потока : 195 Мбайт (1%)
Заголовок : Двуголосый
Язык : Russian

Аудио #9
Идентификатор : 10
Формат : AC-3
Формат/Информация : Audio Coding 3
Расширение режима : CM (complete main)
Идентификатор кодека : A_AC3
Продолжительность : 1 ч. 46 м.
Вид битрейта : Постоянный
Битрейт : 256 Кбит/сек
Канал(ы) : 2 канала(ов)
Расположение каналов : Front: L R
Частота : 48,0 КГц
Битовая глубина : 16 бит
Метод сжатия : С потерями
Размер потока : 195 Мбайт (1%)
Заголовок : В. Горчаков
Язык : Russian

Аудио #10
Идентификатор : 11
Формат : AC-3
Формат/Информация : Audio Coding 3
Расширение режима : CM (complete main)
Идентификатор кодека : A_AC3
Продолжительность : 1 ч. 46 м.
Вид битрейта : Постоянный
Битрейт : 256 Кбит/сек
Канал(ы) : 2 канала(ов)
Расположение каналов : Front: L R
Частота : 48,0 КГц
Битовая глубина : 16 бит
Метод сжатия : С потерями
Размер потока : 195 Мбайт (1%)
Заголовок : В. Дохалов
Язык : Russian

Аудио #11
Идентификатор : 12
Формат : AC-3
Формат/Информация : Audio Coding 3
Расширение режима : CM (complete main)
Идентификатор кодека : A_AC3
Продолжительность : 1 ч. 46 м.
Вид битрейта : Постоянный
Битрейт : 256 Кбит/сек
Канал(ы) : 2 канала(ов)
Расположение каналов : Front: L R
Частота : 48,0 КГц
Битовая глубина : 16 бит
Метод сжатия : С потерями
Размер потока : 195 Мбайт (1%)
Заголовок : Б. Федоров
Язык : Russian

Аудио #12
Идентификатор : 13
Формат : AC-3
Формат/Информация : Audio Coding 3
Расширение режима : CM (complete main)
Идентификатор кодека : A_AC3
Продолжительность : 1 ч. 46 м.
Вид битрейта : Постоянный
Битрейт : 256 Кбит/сек
Канал(ы) : 2 канала(ов)
Расположение каналов : Front: L R
Частота : 48,0 КГц
Битовая глубина : 16 бит
Метод сжатия : С потерями
Размер потока : 195 Мбайт (1%)
Заголовок : М. Латышев
Язык : Russian

Аудио #13
Идентификатор : 14
Формат : AC-3
Формат/Информация : Audio Coding 3
Расширение режима : CM (complete main)
Идентификатор кодека : A_AC3
Продолжительность : 1 ч. 46 м.
Вид битрейта : Постоянный
Битрейт : 256 Кбит/сек
Канал(ы) : 2 канала(ов)
Расположение каналов : Front: L R
Частота : 48,0 КГц
Битовая глубина : 16 бит
Метод сжатия : С потерями
Размер потока : 195 Мбайт (1%)
Заголовок : Г. Либергал
Язык : Russian

Аудио #14
Идентификатор : 15
Формат : AC-3
Формат/Информация : Audio Coding 3
Расширение режима : CM (complete main)
Идентификатор кодека : A_AC3
Продолжительность : 1 ч. 46 м.
Вид битрейта : Постоянный
Битрейт : 256 Кбит/сек
Канал(ы) : 2 канала(ов)
Расположение каналов : Front: L R
Частота : 48,0 КГц
Битовая глубина : 16 бит
Метод сжатия : С потерями
Размер потока : 195 Мбайт (1%)
Заголовок : ОРТ
Язык : Russian

Текст #1
Идентификатор : 16
Формат : UTF-8
Идентификатор кодека : S_TEXT/UTF8
Идентификатор кодека/Информация : UTF-8 Plain Text
Язык : Russian

Текст #2
Идентификатор : 17
Формат : UTF-8
Идентификатор кодека : S_TEXT/UTF8
Идентификатор кодека/Информация : UTF-8 Plain Text
Заголовок : Д. Пучков (Гоблин)
Язык : Russian

Текст #3
Идентификатор : 18
Формат : UTF-8
Идентификатор кодека : S_TEXT/UTF8
Идентификатор кодека/Информация : UTF-8 Plain Text
Язык : English

Меню
00:00:00.000 : en:00:00:00.000
00:04:04.286 : en:00:04:04.286
00:06:29.639 : en:00:06:29.639
00:10:32.465 : en:00:10:32.465
00:18:21.183 : en:00:18:21.183
00:20:21.554 : en:00:20:21.554
00:27:52.337 : en:00:27:52.337
00:31:04.279 : en:00:31:04.279
00:34:53.717 : en:00:34:53.717
00:37:49.601 : en:00:37:49.601
00:41:00.833 : en:00:41:00.833
00:46:33.374 : en:00:46:33.374
00:53:08.685 : en:00:53:08.685
01:01:37.402 : en:01:01:37.402
01:04:08.762 : en:01:04:08.762
01:08:09.919 : en:01:08:09.919
01:14:10.363 : en:01:14:10.363
01:15:50.212 : en:01:15:50.212
01:18:27.369 : en:01:18:27.369
01:20:55.809 : en:01:20:55.809
01:25:09.271 : en:01:25:09.271
01:34:31.833 : en:01:34:31.833
01:35:49.118 : en:01:35:49.118
01:39:58.659 : en:01:39:58.659
01:42:56.170 : en:01:42:56.170


Свернуть
Скриншоты

Изображение
Изображение
Изображение
Изображение
Изображение
Изображение
Свернуть
Свернуть
1990 - Хищник 2 / Predator 2

Изображение

Хищник 2

Predator 2


«Безмолвный. Невидимый. Непобедимый. Приходит в город, чтобы утолить свою жажду убивать.»


Год выпуска: 1990
Страна: Изображение США; Davis Entertainment, Lawrence Gordon Productions, Silver Pictures, Twentieth Century Fox Film Corporation
Жанр: Фантастика, боевик, триллер
Продолжительность: 01:48:00
Перевод: Профессиональный (дублированный), Оригинал
Субтитры: Русские (форсированные), русские (полные), русские (комментарии режиссёра), английские

Режиссёр: Стивен Хопкинс / Stephen Hopkins

В ролях: Кевин Питер Холл, Дэнни Гловер, Гэри Бьюзи, Рубен Бладес, Мария Кончита Алонсо, Билл Пэкстон, Роберт Дави, Адам Болдуин, Кент МакКорд, Мортон Дауни мл.

Описание: Харриган — крутой полицейский отдела по борьбе с наркотиками полиции Лос — Анджелеса. Ему поручено расследование серии убийств крупных криминальных авторитетов города. Все убийства совершены в извращенной форме и пахнут неприкрытым садизмом. После проведения экспертиз и расследований становится ясно, что убийство — дело рук существа, не имеющего ничего общего с человеком.

Землю опять посетил межпланетный охотник, но ему придется столкнуться с существом еще более опасным, чем он сам — с человеком. Харриган выслеживает охотника, постепенно сам становясь охотником. Один на один, как настоящий воин, он ведет бескомпромиссную битву за сохранение чести и права человека не быть существом, на которое можно охотиться.



Качество: BDRip 1080p
Формат: MKV

Видео: AVC, 1920 x 1040 (1.846) at 23.976 fps, 12,9 Мбит/сек

Аудио 1: DTS, 5.1 ch, 48kHz/24-bit, 755 kbps [Дубляж]
Аудио 2: DTS, 5.1 ch, 48 kHz/24-bit, 1510 kbps [Оригинал]
Отдельными файлами:
Аудио 3: DTS, 5.1 ch, 48 kHz/24-bit, 755 kbps [Многоголосый закадровый, R5]
Аудио 4: AC3, 5.1 ch, 48 kHz/16-bit, 384 kbps [Многоголосый закадровый, Киномания]
Аудио 5: AC3, 2.0 ch, 48 kHz/16-bit, 192 kbps [Многоголосый закадровый, ОРТ]
Аудио 6: DTS, 5.1 ch, 48 kHz/24-bit, 1510 kbps [Двухголосый закадровый, П.Гланц, И.Королёва]
Аудио 7: DTS, 5.1 ch, 48 kHz/24-bit, 755 kbps [Одноголосый закадровый, А.Гаврилов]
Аудио 8: AC3, 5.1 ch, 48 kHz/16-bit, 384 kbps [Одноголосый закадровый, В.Горчаков]
Аудио 9: AC3, 5.1 ch, 48 kHz/16-bit, 448 kbps [Одноголосый закадровый, К.Поздняков]
Аудио 10: AC3, 2.0 ch, 48 kHz/16-bit, 224 kbps [Комментарии режиссёра]
Раздача: Изображение

Изображение
MediaInfo

Общее
Уникальный идентификатор : 230248332865844661271191795167621392917 (0xAD383744A492CD0CB37B0FDC0DB1AA15)
Полное имя : C:\Users\Домашний\Desktop\Predator.1-3.BDRip.1080p\Predator.2.BDRip.1080p\Predator.2.BDRip.1080p.mkv
Формат : Matroska
Размер файла : 11,5 Гбайт
Продолжительность : 1 ч. 48 м.
Общий поток : 15,2 Мбит/сек
Дата кодирования : UTC 2011-04-07 14:59:28
Программа кодирования : mkvmerge v4.6.0 ('Still Crazy After All These Years') сборка от Mar 10 2011 02:50:32
Библиотека кодирования : libebml v1.2.0 + libmatroska v1.1.0

Видео
Идентификатор : 1
Формат : AVC
Формат/Информация : Advanced Video Codec
Профиль формата : High@L4.1
Параметр CABAC формата : Да
Параметр ReFrames формата : 4 кадры
Идентификатор кодека : V_MPEG4/ISO/AVC
Продолжительность : 1 ч. 48 м.
Битрейт : 12,9 Мбит/сек
Ширина : 1920 пикс.
Высота : 1040 пикс.
Соотношение сторон : 16:9
Частота кадров : 23,976 кадр/сек
Цветовое пространство : YUV
Подвыборка цветности : 4:2:0
Битовая глубина : 8 бит
Тип развёртки : Прогрессивная
Бит/(Пиксели*Кадры) : 0.270
Размер потока : 9,53 Гбайт (83%)
Заголовок : D-Z0N3 HD VIDEO @ Predator 2 1990 D-Z0N3 ~ 12.9 Mbit TwoPass & HighProFile
Библиотека кодирования : x264 core 104 r1677 19df41a
Настройки программы : cabac=1 / ref=4 / deblock=1:-3:-3 / analyse=0x3:0x113 / me=umh / subme=10 / psy=1 / psy_rd=1.00:0.00 / mixed_ref=0 / me_range=64 / chroma_me=1 / trellis=2 / 8x8dct=1 / cqm=0 / deadzone=21,11 / fast_pskip=0 / chroma_qp_offset=-4 / threads=12 / sliced_threads=0 / nr=0 / decimate=0 / interlaced=0 / constrained_intra=0 / bframes=8 / b_pyramid=2 / b_adapt=2 / b_bias=0 / direct=3 / weightb=1 / open_gop=0 / weightp=2 / keyint=250 / keyint_min=23 / scenecut=40 / intra_refresh=0 / rc_lookahead=50 / rc=2pass / mbtree=1 / bitrate=12924 / ratetol=1.0 / qcomp=0.60 / qpmin=10 / qpmax=51 / qpstep=4 / cplxblur=20.0 / qblur=0.5 / vbv_maxrate=38000 / vbv_bufsize=30000 / ip_ratio=1.40 / aq=1:1.00 / nal_hrd=none
Язык : English

Аудио #1
Идентификатор : 2
Формат : DTS
Формат/Информация : Digital Theater Systems
Идентификатор кодека : A_DTS
Продолжительность : 1 ч. 48 м.
Вид битрейта : Постоянный
Битрейт : 755 Кбит/сек
Канал(ы) : 6 канала(ов)
Расположение каналов : Front: L C R, Side: L R, LFE
Частота : 48,0 КГц
Битовая глубина : 24 бит
Метод сжатия : С потерями
Размер потока : 583 Мбайт (5%)
Заголовок : DUB (Blu-ray CEE)
Язык : Russian

Аудио #2
Идентификатор : 3
Формат : DTS
Формат/Информация : Digital Theater Systems
Идентификатор кодека : A_DTS
Продолжительность : 1 ч. 48 м.
Вид битрейта : Постоянный
Битрейт : 1510 Кбит/сек
Канал(ы) : 6 канала(ов)
Расположение каналов : Front: L C R, Side: L R, LFE
Частота : 48,0 КГц
Битовая глубина : 24 бит
Метод сжатия : С потерями
Размер потока : 1,14 Гбайт (10%)
Заголовок : D-Z0N3 HD AUDIO @ English DTS Core DTSHD-MA
Язык : English

Текст #1
Идентификатор : 4
Формат : UTF-8
Идентификатор кодека : S_TEXT/UTF8
Идентификатор кодека/Информация : UTF-8 Plain Text
Заголовок : Forced
Язык : Russian

Текст #2
Идентификатор : 5
Формат : UTF-8
Идентификатор кодека : S_TEXT/UTF8
Идентификатор кодека/Информация : UTF-8 Plain Text
Заголовок : Full
Язык : Russian

Текст #3
Идентификатор : 6
Формат : UTF-8
Идентификатор кодека : S_TEXT/UTF8
Идентификатор кодека/Информация : UTF-8 Plain Text
Заголовок : Director's Commentary
Язык : Russian

Текст #4
Идентификатор : 7
Формат : UTF-8
Идентификатор кодека : S_TEXT/UTF8
Идентификатор кодека/Информация : UTF-8 Plain Text
Заголовок : D-Z0N3 HD SUB @ English
Язык : English

Меню
00:00:00.000 : en:War Zone
00:03:11.817 : en:A Force Of One
00:07:26.321 : en:Invisible Enemy
00:11:40.408 : en:Cut To Pieces
00:14:05.386 : en:Insubordination
00:16:03.337 : en:The Feds
00:18:57.970 : en:The New Guy
00:22:21.423 : en:Massacre
00:25:48.756 : en:The Devil Came for Them
00:29:03.867 : en:Keyes' Warning
00:30:20.193 : en:Surveillance
00:32:41.209 : en:Danny and the Demon
00:36:39.864 : en:Now It's Personal
00:41:02.001 : en:A Forensic Mystery
00:43:00.411 : en:King Willie
00:47:17.877 : en:Death of a King
00:51:13.821 : en:The Watcher
00:53:43.053 : en:Subway Assassin
00:58:14.408 : en:Mercy
01:01:18.717 : en:Path of the Predator
01:04:46.591 : en:The Alien Hunter
01:07:36.261 : en:Killer In the Cold
01:15:41.871 : en:Keyes Stands Alone
01:16:49.522 : en:Hunter and Hunted
01:19:23.217 : en:One Ugly...
01:22:01.792 : en:Man Against Alien
01:26:10.916 : en:First Aid
01:31:32.195 : en:The Trophy Room
01:33:38.321 : en:Death Blow
01:36:19.440 : en:The Honor Guard
01:37:54.577 : en:Last Man Standing
01:41:48.602 : en:End Titles


Свернуть
Скриншоты

Изображение
Изображение
Изображение
Изображение
Изображение
Изображение
Свернуть
Свернуть
2010 - Хищники / Predators

Изображение

Хищники

Predators


«Fear is Reborn»


Год выпуска: 2010
Страна: Изображение США; Davis Entertainment, Troublemaker Studios, Twentieth Century Fox Film Corporation
Жанр: Фантастика, боевик, триллер, приключения
Продолжительность: 01:46:53
Перевод: Профессиональный (дублированный), Украинский, Оригинал
Субтитры: Русские, английские, украинские

Режиссёр: Нимрод Антал / Nimród Antal

В ролях: Эдриан Броуди, Тофер Грейс, Алиси Брага, Уолтон Гоггинс, Олег Тактаров, Лоренс Фишбёрн, Дэнни Трехо Луис, Одзава Чангчьен, Махершалалхашбаз Али, Кэри Джонс

Описание: Наемник Ройс невольно вынужден возглавить группу профессионалов, выполняющих загадочную миссию на неизвестной планете. За исключением опального доктора все они — хладнокровные убийцы: наемники, гангстеры, осужденные и участники отрядов смерти — людские «хищники». Но когда их начинает систематически преследовать и истреблять невообразимое чудовище, становится очевидно, что теперь они в роли своих жертв.


Качество: BDRip 1080p
Формат: MKV

Видео: AVC, 1920 x 816 (2.353) at 23.976 fps, 14,0 Мбит/сек

Аудио 1: DTS at 755 Кбит/сек, 6 канала(ов), 48,0 КГц [Дубляж]
Аудио 2: AC-3 at 448 Кбит/сек, 6 канала(ов), 48,0 КГц [Украинский]
Аудио 3: DTS at 1510 Кбит/сек, 6 канала(ов), 48,0 КГц [А.Гаврилов]
Аудио 4: DTS at 1510 Кбит/сек, 6 канала(ов), 48,0 КГц [Д.Строев]
Аудио 5: DTS at 1510 Кбит/сек, 6 канала(ов), 48,0 КГц [Оригинал]
Аудио 6: AC-3 at 224 Кбит/сек, 2 канала(ов), 48,0 КГц [Комментарий Роберта Родригеса и Нимрода Антала]
Раздача: Изображение

Изображение
MediaInfo

Общее
Уникальный идентификатор : 171095112046168104097029857005994418796 (0x80B7B84F7B6A3C91BA178B04223EA26C)
Полное имя : C:\Users\Домашний\Desktop\Predator.1-3.BDRip.1080p\Predators.BDRip.1080p.mkv
Формат : Matroska
Размер файла : 14,9 Гбайт
Продолжительность : 1 ч. 46 м.
Общий поток : 20,0 Мбит/сек
Название фильма : Predators (2010) - Release for HDCLUB
Дата кодирования : UTC 2010-11-10 17:16:14
Программа кодирования : mkvmerge v3.3.0 ('Language') built on Mar 24 2010 14:59:24
Библиотека кодирования : libebml v0.8.0 + libmatroska v0.9.0
Обложка : Yes / Yes / Yes

Видео
Идентификатор : 1
Формат : AVC
Формат/Информация : Advanced Video Codec
Профиль формата : High@L4.1
Параметр CABAC формата : Да
Параметр ReFrames формата : 5 кадры
Идентификатор кодека : V_MPEG4/ISO/AVC
Продолжительность : 1 ч. 46 м.
Битрейт : 14,0 Мбит/сек
Ширина : 1920 пикс.
Высота : 816 пикс.
Соотношение сторон : 2,35:1
Частота кадров : 23,976 кадр/сек
Цветовое пространство : YUV
Подвыборка цветности : 4:2:0
Битовая глубина : 8 бит
Тип развёртки : Прогрессивная
Бит/(Пиксели*Кадры) : 0.373
Размер потока : 10,2 Гбайт (68%)
Заголовок : Release for HDCLUB
Библиотека кодирования : x264 core 107 r1745 4785e8e
Настройки программы : cabac=1 / ref=5 / deblock=1:-3:-3 / analyse=0x3:0x113 / me=tesa / subme=10 / psy=1 / psy_rd=0.90:0.00 / mixed_ref=1 / me_range=16 / chroma_me=1 / trellis=2 / 8x8dct=1 / cqm=0 / deadzone=21,11 / fast_pskip=0 / chroma_qp_offset=-2 / threads=12 / sliced_threads=0 / nr=0 / decimate=0 / interlaced=0 / constrained_intra=0 / bframes=7 / b_pyramid=2 / b_adapt=2 / b_bias=0 / direct=3 / weightb=1 / open_gop=0 / weightp=2 / keyint=250 / keyint_min=23 / scenecut=40 / intra_refresh=0 / rc=2pass / mbtree=0 / bitrate=14000 / ratetol=1.0 / qcomp=0.60 / qpmin=10 / qpmax=51 / qpstep=4 / cplxblur=20.0 / qblur=0.5 / ip_ratio=1.40 / pb_ratio=1.30 / aq=1:0.85 / zones=80022,100680,b=1.3/117350,120052,b=1.3/120645,143430,b=1.3
Язык : English

Аудио #1
Идентификатор : 2
Формат : DTS
Формат/Информация : Digital Theater Systems
Идентификатор кодека : A_DTS
Продолжительность : 1 ч. 46 м.
Вид битрейта : Постоянный
Битрейт : 755 Кбит/сек
Канал(ы) : 6 канала(ов)
Расположение каналов : Front: L C R, Side: L R, LFE
Частота : 48,0 КГц
Битовая глубина : 24 бит
Метод сжатия : С потерями
Размер потока : 577 Мбайт (4%)
Заголовок : DTS 5.1 768 Kbps [Дубляж, BluRay CEE]
Язык : Russian

Аудио #2
Идентификатор : 3
Формат : AC-3
Формат/Информация : Audio Coding 3
Расширение режима : CM (complete main)
Идентификатор кодека : A_AC3
Продолжительность : 1 ч. 46 м.
Вид битрейта : Постоянный
Битрейт : 448 Кбит/сек
Канал(ы) : 6 канала(ов)
Расположение каналов : Front: L C R, Side: L R, LFE
Частота : 48,0 КГц
Битовая глубина : 16 бит
Метод сжатия : С потерями
Размер потока : 342 Мбайт (2%)
Заголовок : AC3 5.1 448 Kbps [Дубляж, BluRay CEE]
Язык : Ukrainian

Аудио #3
Идентификатор : 4
Формат : DTS
Формат/Информация : Digital Theater Systems
Идентификатор кодека : A_DTS
Продолжительность : 1 ч. 46 м.
Вид битрейта : Постоянный
Битрейт : 1510 Кбит/сек
Канал(ы) : 6 канала(ов)
Расположение каналов : Front: L C R, Side: L R, LFE
Частота : 48,0 КГц
Битовая глубина : 24 бит
Метод сжатия : С потерями
Размер потока : 1,13 Гбайт (8%)
Заголовок : DTS 5.1 1536 Kbps [Одноголосый, А.Гаврилов]
Язык : Russian

Аудио #4
Идентификатор : 5
Формат : DTS
Формат/Информация : Digital Theater Systems
Идентификатор кодека : A_DTS
Продолжительность : 1 ч. 46 м.
Вид битрейта : Постоянный
Битрейт : 1510 Кбит/сек
Канал(ы) : 6 канала(ов)
Расположение каналов : Front: L C R, Side: L R, LFE
Частота : 48,0 КГц
Битовая глубина : 24 бит
Метод сжатия : С потерями
Размер потока : 1,13 Гбайт (8%)
Заголовок : DTS 5.1 1536 Kbps [Одноголосый, Д.Строев]
Язык : Russian

Аудио #5
Идентификатор : 6
Формат : DTS
Формат/Информация : Digital Theater Systems
Идентификатор кодека : A_DTS
Продолжительность : 1 ч. 46 м.
Вид битрейта : Постоянный
Битрейт : 1510 Кбит/сек
Канал(ы) : 6 канала(ов)
Расположение каналов : Front: L C R, Side: L R, LFE
Частота : 48,0 КГц
Битовая глубина : 24 бит
Метод сжатия : С потерями
Размер потока : 1,13 Гбайт (8%)
Заголовок : DTS 5.1 1536 Kbps [Оригинал]
Язык : English

Аудио #6
Идентификатор : 7
Формат : AC-3
Формат/Информация : Audio Coding 3
Расширение режима : CM (complete main)
Идентификатор кодека : A_AC3
Продолжительность : 1 ч. 46 м.
Вид битрейта : Постоянный
Битрейт : 224 Кбит/сек
Канал(ы) : 2 канала(ов)
Расположение каналов : Front: L R
Частота : 48,0 КГц
Битовая глубина : 16 бит
Метод сжатия : С потерями
Размер потока : 171 Мбайт (1%)
Заголовок : Комментарий Роберта Родригеса и Нимрода Антала
Язык : English

Текст #1
Идентификатор : 8
Формат : UTF-8
Идентификатор кодека : S_TEXT/UTF8
Идентификатор кодека/Информация : UTF-8 Plain Text
Язык : Russian

Текст #2
Идентификатор : 9
Формат : UTF-8
Идентификатор кодека : S_TEXT/UTF8
Идентификатор кодека/Информация : UTF-8 Plain Text
Язык : Ukrainian

Текст #3
Идентификатор : 10
Формат : UTF-8
Идентификатор кодека : S_TEXT/UTF8
Идентификатор кодека/Информация : UTF-8 Plain Text
Заголовок : Комментарий Роберта Родригеса и Нимрода Антала
Язык : Russian

Текст #4
Идентификатор : 11
Формат : ASS
Идентификатор кодека : S_TEXT/ASS
Идентификатор кодека/Информация : Advanced Sub Station Alpha
Метод сжатия : Без потерь
Язык : English

Текст #5
Идентификатор : 12
Формат : UTF-8
Идентификатор кодека : S_TEXT/UTF8
Идентификатор кодека/Информация : UTF-8 Plain Text
Язык : French

Текст #6
Идентификатор : 13
Формат : UTF-8
Идентификатор кодека : S_TEXT/UTF8
Идентификатор кодека/Информация : UTF-8 Plain Text
Язык : Finnish

Текст #7
Идентификатор : 14
Формат : UTF-8
Идентификатор кодека : S_TEXT/UTF8
Идентификатор кодека/Информация : UTF-8 Plain Text
Язык : Croatian

Текст #8
Идентификатор : 15
Формат : UTF-8
Идентификатор кодека : S_TEXT/UTF8
Идентификатор кодека/Информация : UTF-8 Plain Text
Язык : Czech

Текст #9
Идентификатор : 16
Формат : UTF-8
Идентификатор кодека : S_TEXT/UTF8
Идентификатор кодека/Информация : UTF-8 Plain Text
Язык : Hungarian

Текст #10
Идентификатор : 17
Формат : UTF-8
Идентификатор кодека : S_TEXT/UTF8
Идентификатор кодека/Информация : UTF-8 Plain Text
Язык : Norwegian

Текст #11
Идентификатор : 18
Формат : UTF-8
Идентификатор кодека : S_TEXT/UTF8
Идентификатор кодека/Информация : UTF-8 Plain Text
Язык : Portuguese

Текст #12
Идентификатор : 19
Формат : UTF-8
Идентификатор кодека : S_TEXT/UTF8
Идентификатор кодека/Информация : UTF-8 Plain Text
Язык : Romanian

Текст #13
Идентификатор : 20
Формат : UTF-8
Идентификатор кодека : S_TEXT/UTF8
Идентификатор кодека/Информация : UTF-8 Plain Text
Язык : Slovenian

Текст #14
Идентификатор : 21
Формат : UTF-8
Идентификатор кодека : S_TEXT/UTF8
Идентификатор кодека/Информация : UTF-8 Plain Text
Язык : Spanish

Текст #15
Идентификатор : 22
Формат : UTF-8
Идентификатор кодека : S_TEXT/UTF8
Идентификатор кодека/Информация : UTF-8 Plain Text
Язык : Serbian

Текст #16
Идентификатор : 23
Формат : UTF-8
Идентификатор кодека : S_TEXT/UTF8
Идентификатор кодека/Информация : UTF-8 Plain Text
Язык : Swedish

Меню
00:00:00.000 : :00:00:00.000
00:05:27.035 : :00:05:27.035
00:07:57.394 : :00:07:57.394
00:13:33.521 : :00:13:33.521
00:17:26.587 : :00:17:26.587
00:20:02.410 : :00:20:02.410
00:23:46.300 : :00:23:46.300
00:26:19.119 : :00:26:19.119
00:31:34.518 : :00:31:34.518
00:34:56.511 : :00:34:56.511
00:38:24.719 : :00:38:24.719
00:41:57.056 : :00:41:57.056
00:46:12.979 : :00:46:12.979
00:49:57.786 : :00:49:57.786
00:53:27.955 : :00:53:27.955
00:57:43.126 : :00:57:43.126
01:02:11.853 : :01:02:11.853
01:05:48.903 : :01:05:48.903
01:09:38.758 : :01:09:38.758
01:14:16.994 : :01:14:16.994
01:16:25.539 : :01:16:25.539
01:19:26.929 : :01:19:26.929
01:21:34.473 : :01:21:34.473
01:23:51.902 : :01:23:51.902
01:27:33.707 : :01:27:33.707
01:30:48.234 : :01:30:48.234
01:34:12.564 : :01:34:12.564
01:41:17.697 : :01:41:17.697


Свернуть
Скриншоты

Изображение
Изображение
Изображение
Изображение
Изображение
Изображение
Свернуть
Свернуть
_________________
Изображение
Изображение
Не в сети
Профиль  
 Добавлено: 2012-01-07 19:38 (спустя 1 день)
Аватара пользователя
Стаж: 7 лет 5 месяцев
Сообщений: 35
Спасибо.
Эту трилогию однозначно в коллекцию !!! :co_ol:
Не в сети
Профиль  
 Добавлено: 2012-01-22 02:51 (спустя 14 дней)
Стаж: 7 лет 8 месяцев
Сообщений: 71
хачу хачу хачу хачу!!!! скорости дааайте!!!
Не в сети
Профиль  
 Добавлено: 2012-03-07 16:17 (спустя 1 месяц 16 дней)
Аватара пользователя
Стаж: 7 лет 11 месяцев
Сообщений: 786
Спасибок: 25
Лайков: 9
:bra_vo: Помогите скачать , встанте на раздачу !!! Спасибо за фильм :bra_vo:
Не в сети
Профиль  
 Добавлено: 2012-03-07 16:23 (спустя 6 минут)
Аватара пользователя
Стаж: 7 лет 11 месяцев
Сообщений: 786
Спасибок: 25
Лайков: 9
:bra_vo: Помогите скачать , встанте на раздачу !!! Спасибо за фильм :bra_vo:
Не в сети
Профиль  
 Добавлено: 2012-05-10 19:10 (спустя 2 месяца 3 дня)
Стаж: 8 лет 7 месяцев
Сообщений: 11
Лайков: 1
Нуждаюсь в раздаче, такой раритетной темы!!! Жду помощи!!! Спасибо!
Не в сети
Профиль  
 Добавлено: 2012-11-05 17:53 (спустя 5 месяцев 25 дней)
Стаж: 8 лет 2 месяца
Сообщений: 4
Спасибок: 57
3 часть припадочная какая-то. :(
Не в сети
Профиль  
Начать новую темуОтветить на тему  [ Сообщений: 7 ] 
Вы не можете начинать темы
Вы не можете отвечать на сообщения
Вы не можете редактировать свои сообщения
Вы не можете удалять свои сообщения