Правила форума

  • В этом разделе создание новых тем Запрещено.
  • Для создания новых тем пользуйтесь Корневым разделом DVD и HD фильмы.
Начать новую темуОтветить на тему  [ Сообщений: 2 ] 
Торрент файл
Размер: 4.66 GB • Зарегистрирован: 1 год • Статус: Проверено
Скачан: 65 раз • Желающих скачать: 0 • Поблагодарили: 14 раз
 Раздают: 0  |  0 KB/s  ]   Качают: 0  |  0 KB/s  ] 
 Полного источника не было 48 минут 
Сообщения
 Добавлено: 2015-11-18 07:30
DVD Release Group
Аватара пользователя
Стаж: 7 лет 1 месяц
Сообщений: 3544
Спасибок: 246938
Лайков: 1018
Хитмэн: Агент 47

Hitman: Agent 47


Изображение


Год выпуска: 2015
Страна: Германия, США
Жанр: Боевик, триллер, криминал
Продолжительность: 01:36:18
Перевод: Профессиональный (полное дублирование)
Режиссер: Александр Бах
В ролях: Руперт Френд, Анджела Бейби, Дэн Баккедаль, Шарлин Бек, Михаэль Борнхюттер, Нильс Брункхорст, Михаэлла Каспар, Майкл Коркоран
Описание: История об элитном убийце, созданном при помощи генной инженерии, который объединяется с женщиной, чтобы помочь ей найти отца и раскрыть тайну своего происхождения.
Изображение
Качество: BDRip 720p
Формат: MKV
Видео кодек: H.264
Аудио кодек: AC3, DTS
Видео: 1280x536 23.98fps 4989kbps
Аудио:
Аудио Rus: AC3 48kHz 6ch 448Kbps
Аудио Eng: DTS 48kHz 6ch 1510Kbps
"MediaInfo"
Формат : Matroska
Версия формата : Version 2
Размер файла : 4,66 Гбайт
Продолжительность : 1 ч. 36 м.
Общий поток : 6930 Кбит/сек
Дата кодирования : UTC 2015-11-17 06:36:46
Программа кодирования : mkvmerge v8.3.0 ('Over the Horizon') 64bit
Библиотека кодирования : libebml v1.3.1 + libmatroska v1.4.2
DURATION : 01:36:16.832000000
NUMBER_OF_FRAMES : 180526
NUMBER_OF_BYTES : 323502592
_STATISTICS_WRITING_APP : mkvmerge v8.3.0 ('Over the Horizon') 64bit
_STATISTICS_WRITING_DATE_UTC : 2015-11-17 06:36:46
_STATISTICS_TAGS : BPS DURATION NUMBER_OF_FRAMES NUMBER_OF_BYTES

Видео
Идентификатор : 1
Формат : AVC
Формат/Информация : Advanced Video Codec
Профиль формата : High@L4.1
Параметр CABAC формата : Да
Параметр ReFrames формата : 5 кадров
Идентификатор кодека : V_MPEG4/ISO/AVC
Продолжительность : 1 ч. 36 м.
Битрейт : 4989 Кбит/сек
Ширина : 1280 пикселей
Высота : 536 пикселей
Соотношение сторон : 2,40:1
Режим частоты кадров : Постоянный
Частота кадров : 23,976 кадра/сек
Цветовое пространство : YUV
Субдискретизация насыщенности : 4:2:0
Битовая глубина : 8 бит
Тип развёртки : Прогрессивная
Бит/(Пиксели*Кадры) : 0.303
Размер потока : 3,25 Гбайт (70%)
Библиотека кодирования : x264 core 148 r2638 7599210
Настройки программы : cabac=1 / ref=5 / deblock=1:0:0 / analyse=0x3:0x133 / me=umh / subme=7 / psy=1 / psy_rd=1.00:0.00 / mixed_ref=1 / me_range=16 / chroma_me=1 / trellis=1 / 8x8dct=1 / cqm=0 / deadzone=21,11 / fast_pskip=0 / chroma_qp_offset=-2 / threads=12 / lookahead_threads=2 / sliced_threads=0 / nr=0 / decimate=1 / interlaced=0 / bluray_compat=0 / constrained_intra=0 / bframes=3 / b_pyramid=2 / b_adapt=1 / b_bias=0 / direct=1 / weightb=1 / open_gop=0 / weightp=2 / keyint=250 / keyint_min=23 / scenecut=40 / intra_refresh=0 / rc_lookahead=40 / rc=2pass / mbtree=1 / bitrate=4989 / ratetol=1.0 / qcomp=0.60 / qpmin=0 / qpmax=69 / qpstep=4 / cplxblur=20.0 / qblur=0.5 / ip_ratio=1.40 / aq=1:1.00
Язык : English
Default : Да
Forced : Нет
DURATION : 01:36:16.781000000
NUMBER_OF_FRAMES : 138504
NUMBER_OF_BYTES : 3588854736
_STATISTICS_WRITING_APP : mkvmerge v8.3.0 ('Over the Horizon') 64bit
_STATISTICS_WRITING_DATE_UTC : 2015-11-17 06:36:46
_STATISTICS_TAGS : BPS DURATION NUMBER_OF_FRAMES NUMBER_OF_BYTES

Аудио #1
Идентификатор : 2
Формат : AC-3
Формат/Информация : Audio Coding 3
Расширение режима : CM (complete main)
Параметр Endianness формата : Big
Идентификатор кодека : A_AC3
Продолжительность : 1 ч. 36 м.
Вид битрейта : Постоянный
Битрейт : 448 Кбит/сек
Каналы : 6 каналов
Расположение каналов : Front: L C R, Side: L R, LFE
Частота : 48,0 КГц
Битовая глубина : 16 бит
Метод сжатия : С потерями
Размер потока : 309 Мбайт (6%)
Язык : Russian
Default : Да
Forced : Нет

Аудио #2
Идентификатор : 3
Формат : DTS
Формат/Информация : Digital Theater Systems
Профиль формата : ES
Режим : 16
Параметр Endianness формата : Big
Идентификатор кодека : A_DTS
Продолжительность : 1 ч. 36 м.
Вид битрейта : Постоянный
Битрейт : 1509 Кбит/сек
Каналы : 6 каналов
Расположение каналов : Front: L C R, Side: L R, LFE
Частота : 48,0 КГц
Битовая глубина : 24 бит
Метод сжатия : С потерями
Размер потока : 1,01 Гбайт (22%)
Язык : English
Default : Нет
Forced : Нет

Меню
00:00:00.000 : en:00:00:00.000
00:07:11.348 : en:00:07:11.348
00:09:02.959 : en:00:09:02.959
00:13:11.582 : en:00:13:11.582
00:16:21.606 : en:00:16:21.606
00:19:22.787 : en:00:19:22.787
00:24:43.816 : en:00:24:43.816
00:27:19.179 : en:00:27:19.179
00:30:18.692 : en:00:30:18.692
00:33:03.815 : en:00:33:03.815
00:38:18.713 : en:00:38:18.713
00:43:11.756 : en:00:43:11.756
00:46:53.436 : en:00:46:53.436
00:50:39.870 : en:00:50:39.870
00:54:02.531 : en:00:54:02.531
00:59:50.587 : en:00:59:50.587
01:06:01.749 : en:01:06:01.749
01:09:06.142 : en:01:09:06.142
01:13:23.190 : en:01:13:23.190
01:16:55.319 : en:01:16:55.319
01:21:15.746 : en:01:21:15.746
01:25:20.824 : en:01:25:20.824
01:28:06.156 : en:01:28:06.156
01:31:17.847 : en:01:31:17.847
Свернуть

"Скриншоты"
Изображение
Изображение
Изображение
Свернуть
Не в сети
Профиль  
 Добавлено: 2015-11-18 20:46 (спустя 13 часов)
Модератор
Аватара пользователя
Стаж: 8 лет 2 месяца
Возраст: 30
Сообщений: 3201
Спасибок: 2960
Лайков: 206
Фильм избит стереотипами и штампами жанрового кино... не больше 5 из 10 и уж никак не в коллекцию :men:
_________________

ИзображениеПравила Создание релизов от А до Я
Не в сети
Профиль  
Начать новую темуОтветить на тему  [ Сообщений: 2 ] 
Вы не можете начинать темы
Вы не можете отвечать на сообщения
Вы не можете редактировать свои сообщения
Вы не можете удалять свои сообщения