Правила форума

  • В этом разделе создание новых тем Запрещено.
  • Для создания новых тем пользуйтесь Корневым разделом DVD и HD фильмы.
Начать новую темуОтветить на тему  [ 1 сообщение ] 
Торрент файл
Размер: 11.35 GB • Зарегистрирован: 4 года 6 месяцев • Статус: Проверено
Скачан: 77 раз • Желающих скачать: 0 • Поблагодарили: 20 раз
 Раздают: 0  |  0 KB/s  ]   Качают: 0  |  0 KB/s  ] 
 Полного источника не было 6 месяцев 
Сообщения
 Добавлено: 2012-05-16 12:34
Стаж: 4 года 8 месяцев
Возраст: 31
Сообщений: 4
Спасибок: 52
Лайков: 1
Хитмэн / Hitman

Изображение


Год выпуска: 2007
Страна: США, Франция
Слоган: «Говорят, он один смертный грех»
Жанр: боевик, триллер, драма, криминал.
Продолжительность: 01:34:00
Версия фильма: Unrated / Полная версия
Перевод: Полное дублирование
Субтитры: Русские

Режиссёр: Ксавьер Генс
В ролях: Тимоти Олифант, Дюгрэй Скотт, Ольга Куриленко, Роберт Неппер, Ульрих Томсен, Генри Йен Кьюсик, Михаэль Оффей, Кристиан Эриксон, Эрик Эбони, Джо Шеридан
Описание: Хитмэн был обучен, как высоко профессиональный убийца, чье самое мощное оружие — это хладнокровие и безмерная гордость за свою работу. 47 — это две последние цифры на штрихкоде, вытатуированном на его затылке, а также его единственное имя. Но охотник становится добычей, когда 47-й оказывается втянутым в политические интриги. Интерпол и русские военные начинают охоту на киллера по всей восточной Европе, в то время как он сам пытается понять, кто его подставил и почему они пытаются вывести его из игры. Но самую большую угрозу для 47-го представляет волнение его совести и незнакомые эмоции, пробудившиеся в нем после встречи с прекрасной девушкой…
Рейтинг MPAA: Рейтинг R (Подростки до 17 лет допускаются на фильм только в сопровождении одного из родителей)
Мировая премьера: 21 ноября 2007
Премьера в России: 29 ноября 2007
Бюджет: $24 000 000
Кассовые сборы: $99 965 753

Качество: BDrip
Формат: MPEG-TS
Видео кодек: H264
Аудио кодек: DTS
Видео: 1920x1080 23.976fps
Аудио #1: DTS 48000Hz 6ch 768kbps
Субтитры: Русские
Скриншоты
Изображение
Изображение
Изображение
Изображение
Свернуть

Знаете ли Вы, что...
В одной из сцен фильма можно заметить игру Hitman, по которой снимался этот фильм.
Исполнительным продюсером фильма является Вин Дизель, который изначально должен был сыграть роль агента 47.
Свернуть
MediaInfo
General
ID : 1 (0x1)
Complete name : Hitman 2007.ts
Format : MPEG-TS
File size : 11.4 GiB
Duration : 1h 34mn
Overall bit rate mode : Variable
Overall bit rate : 17.2 Mbps
Maximum Overall bit rate : 35.5 Mbps

Video
ID : 4113 (0x1011)
Menu ID : 1 (0x1)
Format : AVC
Format/Info : Advanced Video Codec
Format profile : High@L4.1
Format settings, CABAC : Yes
Format settings, ReFrames : 2 frames
Codec ID : 27
Duration : 1h 34mn
Bit rate mode : Variable
Bit rate : 15.6 Mbps
Width : 1 920 pixels
Height : 1 080 pixels
Display aspect ratio : 16:9
Frame rate : 23.976 fps
Color space : YUV
Chroma subsampling : 4:2:0
Bit depth : 8 bits
Scan type : Progressive
Bits/(Pixel*Frame) : 0.314
Stream size : 10.3 GiB (91%)

Audio
ID : 4352 (0x1100)
Menu ID : 1 (0x1)
Format : DTS
Format/Info : Digital Theater Systems
Codec ID : 130
Duration : 1h 33mn
Bit rate mode : Constant
Bit rate : 755 Kbps
Channel(s) : 6 channels
Channel positions : Front: L C R, Side: L R, LFE
Sampling rate : 48.0 KHz
Bit depth : 24 bits
Compression mode : Lossy
Stream size : 507 MiB (4%)
Language : Russian

Text
ID : 4608 (0x1200)
Menu ID : 1 (0x1)
Format : PGS
Codec ID : 144
Language : Russian
Свернуть
 Bober86 нравится это.
Не в сети
Профиль  
Начать новую темуОтветить на тему  [ 1 сообщение ] 
Вы не можете начинать темы
Вы не можете отвечать на сообщения
Вы не можете редактировать свои сообщения
Вы не можете удалять свои сообщения