Правила форума

  • В этом разделе создание новых тем Запрещено.
  • Для создания новых тем пользуйтесь Корневым разделом DVD и HD фильмы.
Начать новую темуОтветить на тему  [ Сообщений: 3 ] 
Торрент файл
Размер: 6.94 GB • Зарегистрирован: 1 год 8 месяцев • Статус: Проверено
Скачан: 204 раза • Желающих скачать: 0 • Поблагодарили: 38 раз
 Раздают: 1  |  0 KB/s  ]   Качают: 0  |  0 KB/s  ] 
Сообщения
 Добавлено: 2015-03-06 06:28
DVD Release Group
Аватара пользователя
Стаж: 7 лет 1 месяц
Сообщений: 3541
Спасибок: 246632
Лайков: 1016
Хоббит: Битва пяти воинств

The Hobbit: The Battle of the Five Armies


Изображение


Год выпуска: 2014
Страна: Новая Зеландия, США
Жанр: Фэнтези, приключения
Продолжительность: 02:24:28
Перевод: Профессиональный (полное дублирование)
Субтитры: Русские вшиты на речь Эльфов и Орков
Режиссер: Питер Джексон
В ролях: Мартин Фриман, Иэн МакКеллен, Ричард Армитедж, Люк Эванс, Эванджелин Лилли, Ли Пейс, Орландо Блум, Бенедикт Камбербэтч, Кен Стотт, Эйдан Тернер
Описание: Когда отряд из тринадцати гномов нанимал хоббита Бильбо Бэгинса в качестве взломщика и четырнадцатого, «счастливого», участника похода к Одинокой горе, Бильбо полагал, что его приключения закончатся, когда он выполнит свою задачу — найдет сокровище, которое так необходимо предводителю гномов Торину. Путешествие в Эребор, захваченное драконом Смаугом королевство гномов, оказалось еще более опасным, чем предполагали гномы и даже Гэндальф — мудрый волшебник, протянувший Торину и его отряду руку помощи. В погоню за гномами устремилась армия орков, ведомых пробудившимся в руинах древним злом, а эльфы и люди, с которыми Бильбо и его товарищам пришлось иметь дело во время путешествия и которые пострадали от последствий желания гномов вернуть свой дом, предъявили права на щедрое вознаграждение — часть сокровищ Одинокой горы. Скоро неподалеку от Одинокой горы встретятся пять армий, и лишь кровопролитная битва определит результаты смелого гномьего похода.
Изображение Изображение
Качество: BDRip 720p
Формат: MKV
Видео кодек: H.264
Аудио кодек: AC3, DTS
Видео: 1280x536 23.98fps 4985kbps
Аудио:
Аудио Rus: AC3 48kHz 6ch 384kbps
Аудио Eng: DTS 48kHz 6ch 1510kbps
"MediaInfo"
Формат : Matroska
Версия формата : Version 4 / Version 2
Размер файла : 6,94 Гбайт
Продолжительность : 2 ч. 24 м.
Общий поток : 6880 Кбит/сек
Дата кодирования : UTC 2015-03-05 21:51:20
Программа кодирования : mkvmerge v6.1.0 ('Old Devil') built on Mar 2 2013 14:32:37
Библиотека кодирования : libebml v1.3.0 + libmatroska v1.4.0

Видео
Идентификатор : 1
Формат : AVC
Формат/Информация : Advanced Video Codec
Профиль формата : High@L4.1
Параметр CABAC формата : Да
Параметр ReFrames формата : 5 кадров
Идентификатор кодека : V_MPEG4/ISO/AVC
Продолжительность : 2 ч. 24 м.
Битрейт : 4985 Кбит/сек
Ширина : 1280 пикселей
Высота : 536 пикселей
Соотношение сторон : 2,40:1
Режим частоты кадров : Постоянный
Частота кадров : 23,976 кадра/сек
Цветовое пространство : YUV
Субдискретизация насыщенности : 4:2:0
Битовая глубина : 8 бит
Тип развёртки : Прогрессивная
Бит/(Пиксели*Кадры) : 0.303
Размер потока : 4,89 Гбайт (70%)
Библиотека кодирования : x264 core 144 r2525 40bb568
Настройки программы : cabac=1 / ref=5 / deblock=1:0:0 / analyse=0x3:0x133 / me=umh / subme=7 / psy=1 / psy_rd=1.00:0.00 / mixed_ref=1 / me_range=16 / chroma_me=1 / trellis=1 / 8x8dct=1 / cqm=0 / deadzone=21,11 / fast_pskip=0 / chroma_qp_offset=-2 / threads=18 / lookahead_threads=3 / sliced_threads=0 / nr=0 / decimate=1 / interlaced=0 / bluray_compat=0 / constrained_intra=0 / bframes=3 / b_pyramid=2 / b_adapt=1 / b_bias=0 / direct=1 / weightb=1 / open_gop=0 / weightp=2 / keyint=250 / keyint_min=23 / scenecut=40 / intra_refresh=0 / rc_lookahead=40 / rc=2pass / mbtree=1 / bitrate=4985 / ratetol=1.0 / qcomp=0.60 / qpmin=0 / qpmax=69 / qpstep=4 / cplxblur=20.0 / qblur=0.5 / ip_ratio=1.40 / aq=1:1.00
Язык : English
Default : Да
Forced : Нет

Аудио #1
Идентификатор : 2
Формат : AC-3
Формат/Информация : Audio Coding 3
Расширение режима : CM (complete main)
Параметр Endianness формата : Big
Идентификатор кодека : A_AC3
Продолжительность : 2 ч. 24 м.
Вид битрейта : Постоянный
Битрейт : 384 Кбит/сек
Каналы : 6 каналов
Расположение каналов : Front: L C R, Side: L R, LFE
Частота : 48,0 КГц
Битовая глубина : 16 бит
Метод сжатия : С потерями
Задержка видео : 800 мс.
Размер потока : 397 Мбайт (6%)
Заголовок : iTunes
Язык : Russian
Default : Да
Forced : Да

Аудио #2
Идентификатор : 3
Формат : DTS
Формат/Информация : Digital Theater Systems
Режим : 16
Параметр Endianness формата : Big
Идентификатор кодека : A_DTS
Продолжительность : 2 ч. 24 м.
Вид битрейта : Постоянный
Битрейт : 1509 Кбит/сек
Каналы : 6 каналов
Расположение каналов : Front: L C R, Side: L R, LFE
Частота : 48,0 КГц
Битовая глубина : 24 бит
Метод сжатия : С потерями
Размер потока : 1,52 Гбайт (22%)
Заголовок : Оригинал
Язык : English
Default : Нет
Forced : Нет

Текст
Идентификатор : 4
Формат : UTF-8
Идентификатор кодека : S_TEXT/UTF8
Идентификатор кодека/Информация : UTF-8 Plain Text
Заголовок : русские форсированые
Язык : Russian
Default : Да
Forced : Нет

Меню
00:00:00.000 : en:00:00:00.000
00:05:12.395 : en:00:05:12.395
00:12:26.287 : en:00:12:26.287
00:12:58.528 : en:00:12:58.528
00:18:36.657 : en:00:18:36.657
00:23:21.400 : en:00:23:21.400
00:24:35.391 : en:00:24:35.391
00:25:43.625 : en:00:25:43.625
00:27:12.256 : en:00:27:12.256
00:34:30.110 : en:00:34:30.110
00:38:27.722 : en:00:38:27.722
00:39:46.968 : en:00:39:46.968
00:40:57.580 : en:00:40:57.580
00:43:54.507 : en:00:43:54.507
00:49:06.026 : en:00:49:06.026
00:52:36.320 : en:00:52:36.320
00:53:53.188 : en:00:53:53.188
00:56:09.658 : en:00:56:09.658
00:58:04.731 : en:00:58:04.731
01:01:57.964 : en:01:01:57.964
01:07:13.696 : en:01:07:13.696
01:10:00.446 : en:01:10:00.446
01:12:29.887 : en:01:12:29.887
01:16:51.524 : en:01:16:51.524
01:20:05.926 : en:01:20:05.926
01:22:15.347 : en:01:22:15.347
01:24:25.227 : en:01:24:25.227
01:26:35.899 : en:01:26:35.899
01:29:18.895 : en:01:29:18.895
01:31:17.389 : en:01:31:17.389
01:32:03.852 : en:01:32:03.852
01:33:01.576 : en:01:33:01.576
01:35:58.169 : en:01:35:58.169
01:36:52.432 : en:01:36:52.432
01:40:16.385 : en:01:40:16.385
01:48:15.531 : en:01:48:15.531
01:54:22.439 : en:01:54:22.439
01:57:41.638 : en:01:57:41.638
02:00:47.907 : en:02:00:47.907
02:06:48.434 : en:02:06:48.434
02:11:31.300 : en:02:11:31.300
Свернуть

"Скриншоты"
Изображение
Изображение
Изображение
Свернуть
 MarkII и IDclub нравится это.
Не в сети
Профиль  
 Добавлено: 2015-05-05 10:28 (спустя 1 месяц 30 дней)
Аватара пользователя
Стаж: 7 лет 7 месяцев
Сообщений: 136
Лайков: 1
Есть ли ли такой же, только со звуком с блю рей?
Не в сети
Профиль  
 Добавлено: 2015-05-20 23:27 (спустя 15 дней)
Аватара пользователя
Стаж: 7 лет
Сообщений: 32
Спасибок: 95
не знаете случаем: такая проблема, на компе есть русские субтитры. на телевизоре нет.
Не в сети
Профиль  
Начать новую темуОтветить на тему  [ Сообщений: 3 ] 
Вы не можете начинать темы
Вы не можете отвечать на сообщения
Вы не можете редактировать свои сообщения
Вы не можете удалять свои сообщения