Правила форума

  • В этом разделе создание новых тем Запрещено.
  • Для создания новых тем пользуйтесь Корневым разделом DVD и HD фильмы.
Начать новую темуОтветить на тему  [ 1 сообщение ] 
Торрент файл
Размер: 13.56 GB • Зарегистрирован: 1 год 10 месяцев • Статус: Проверено
Скачан: 193 раза • Желающих скачать: 0 • Поблагодарили: 37 раз
 Раздают: 2  |  17 KB/s  ]   Качают: 1  |  375 KB/s  ] 
Сообщения
 Добавлено: 2015-02-06 16:09
Стаж: 1 год 10 месяцев
Сообщений: 3
Спасибок: 37
Лайков: 1
Хоббит: Нежданное путешествие / The Hobbit: An Unexpected Journey

Изображение
Год выпуска: 2012
Страна: США, Новая Зеландия
Жанр: фэнтези, приключения
Продолжительность: 3:02:31
Версия фильма: Extended cut / Расширенная версия
Перевод: Профессиональный (дубляж) + Авторский одноголосый (Сербин) + Авторский одноголосый (Горчаков) + Оригинальная звуковая дорожка
Субтитры: русские, украинские, английские
Режиссёр: Питер Джексон
Сценарист: Фрэнсис Уолш, Филиппа Бойенс, Питер Джексон
Продюсер: Кэролинн Каннингэм, Питер Джексон, Фрэнсис Уолш
Оператор: Эндрю Лесни
Композитор: Говард Шор
В ролях: Мартин Фриман, Иэн МакКеллен, Ричард Армитидж, Джеймс Несбитт, Кен Стотт, Грэм МакТавиш, Дин О’Горман, Эйдан Тернер, Джед Брофи, Марк Хэдлоу.
Описание: Фильм повествует о путешествии Бильбо Бэггинса, который пускается в грандиозный поход, целью которого является отвоевание утраченного королевства гномов Эребор у зловещего дракона Смауга. Совершенно неожиданно с хоббитом налаживает контакт волшебник Гэндальф Серый. Так Бильбо находит себя, присоединяясь к компании тринадцати гномов, возглавляемых легендарным воином, Торином Дубощитом. Их путешествие проляжет через Дикий Край, через предательские земли, населенные гоблинами и орками, смертоносными варгами и гигантскими пауками, народом, меняющим шкуры, и волшебниками.

И хотя их цель находится на Востоке, среди пустошей Одинокой Горы, сначала им придется выбраться из туннелей гоблинов, где Бильбо встретит существо, которое изменит его жизнь навсегда… Голлума.

Здесь, один на один с Голлумом, на берегу подземного озера, непритязательный Бильбо Бэггинс обнаружит не только скрытые в глубине души хитрость и отвагу, которые удивят даже его, но и завладеет «прелестным» колечком Голлума, которое обладает нежданными и полезными свойствами… Простое золотое кольцо, c которым связана судьба всего Средиземья, нитями, о которых Бильбо не мог даже вообразить.
Рейтинг MPAA: Рейтинг PG-13 (Дети до 13 лет допускаются на фильм только с родителями)
Мировая премьера: 28 ноября 2012
Премьера в России: 19 декабря 2012, «Каро-Премьер»
Бюджет: $180 000 000
Кассовые сборы: + $714 000 000 = $1 017 003 568
Изображение 8.267 (177 364) Top: №104 
Качество: BDRip 720p
Формат: MKV
Видео кодек: AVC
Аудио кодек: AC3 (Dolby Digital), DTS
Видео: 1280x534 (2.40:1), 23.976 fps, x264@L4.1 ~ 5452 kbps avg
Аудио #1: Russian 48 kHz, AC3, 3/2 (L,C,R,l,r) + LFE ch, 448.00 kbps avg [Профессиональный (дубляж)]
Аудио #2: Russian 48 kHz, DTS, 3/2 (L,C,R,l,r) + LFE ch, 1509.00 kbps avg [Авторский одноголосый (Сербин)]
Аудио #3: Russian 48 kHz, DTS, 3/2 (L,C,R,l,r) + LFE ch, 1509.00 kbps avg [Авторский одноголосый (Горчаков)]
Аудио #4: English 48 kHz, DTS, 3/2 (L,C,R,l,r) + LFE ch, 1509.00 kbps avg [Оригинальная звуковая дорожка]
Субтитры: русские, украинские, английские
MI
Общее
Формат : Matroska
Версия формата : Version 4 / Version 2
Размер файла : 13,6 Гбайт
Продолжительность : 3 ч. 2 м.
Общий поток : 10,6 Мбит/сек
Название фильма : The Hobbit: An Unexpected Journey (2012) - Release for HDCLUB
Дата кодирования : UTC 2013-12-28 14:37:25
Программа кодирования : mkvmerge v6.6.0 ('The Edge Of The In Between') built on Dec 1 2013 17:55:00
Библиотека кодирования : libebml v1.3.0 + libmatroska v1.4.1
Attachment : Yes

Видео
Идентификатор : 1
Формат : AVC
Формат/Информация : Advanced Video Codec
Профиль формата : High@L4.1
Параметр CABAC формата : Да
Параметр ReFrames формата : 12 кадров
Идентификатор кодека : V_MPEG4/ISO/AVC
Продолжительность : 3 ч. 2 м.
Битрейт : 5452 Кбит/сек
Ширина : 1280 пикселей
Высота : 534 пикселя
Соотношение сторон : 2,40:1
Режим частоты кадров : Постоянный
Частота кадров : 23,976 кадра/сек
Цветовое пространство : YUV
Субдискретизация насыщенности : 4:2:0
Битовая глубина : 8 бит
Тип развёртки : Прогрессивная
Бит/(Пиксели*Кадры) : 0.333
Размер потока : 6,95 Гбайт (51%)
Заголовок : Release for HDCLUB
Библиотека кодирования : x264 core 140 r2377 1ca7bb9
Настройки программы : cabac=1 / ref=12 / deblock=1:-3:-3 / analyse=0x3:0x133 / me=tesa / subme=10 / psy=1 / psy_rd=1.05:0.00 / mixed_ref=1 / me_range=16 / chroma_me=1 / trellis=2 / 8x8dct=1 / cqm=0 / deadzone=21,11 / fast_pskip=0 / chroma_qp_offset=-2 / threads=12 / lookahead_threads=2 / sliced_threads=0 / nr=0 / decimate=1 / interlaced=0 / bluray_compat=0 / constrained_intra=0 / bframes=7 / b_pyramid=2 / b_adapt=2 / b_bias=0 / direct=3 / weightb=1 / open_gop=0 / weightp=2 / keyint=250 / keyint_min=23 / scenecut=40 / intra_refresh=0 / rc=crf / mbtree=0 / crf=16.0 / qcomp=0.75 / qpmin=0 / qpmax=69 / qpstep=4 / ip_ratio=1.40 / pb_ratio=1.30 / aq=1:0.80
Язык : English
Default : Да
Forced : Нет
Коэффициенты матрицы : BT.709

Аудио #1
Идентификатор : 2
Формат : AC-3
Формат/Информация : Audio Coding 3
Расширение режима : CM (complete main)
Параметр Endianness формата : Big
Идентификатор кодека : A_AC3
Продолжительность : 3 ч. 2 м.
Вид битрейта : Постоянный
Битрейт : 448 Кбит/сек
Каналы : 6 каналов
Расположение каналов : Front: L C R, Side: L R, LFE
Частота : 48,0 КГц
Битовая глубина : 16 бит
Метод сжатия : С потерями
Размер потока : 585 Мбайт (4%)
Заголовок : Dub, Blu-ray CEE
Язык : Russian
Default : Да
Forced : Нет

Аудио #2
Идентификатор : 3
Формат : DTS
Формат/Информация : Digital Theater Systems
Режим : 16
Параметр Endianness формата : Big
Идентификатор кодека : A_DTS
Продолжительность : 3 ч. 2 м.
Вид битрейта : Постоянный
Битрейт : 1509 Кбит/сек
Каналы : 6 каналов
Расположение каналов : Front: L C R, Side: L R, LFE
Частота : 48,0 КГц
Битовая глубина : 24 бит
Метод сжатия : С потерями
Размер потока : 1,92 Гбайт (14%)
Заголовок : VO, Сербин
Язык : Russian
Default : Нет
Forced : Нет

Аудио #3
Идентификатор : 4
Формат : DTS
Формат/Информация : Digital Theater Systems
Режим : 16
Параметр Endianness формата : Big
Идентификатор кодека : A_DTS
Продолжительность : 3 ч. 2 м.
Вид битрейта : Постоянный
Битрейт : 1509 Кбит/сек
Каналы : 6 каналов
Расположение каналов : Front: L C R, Side: L R, LFE
Частота : 48,0 КГц
Битовая глубина : 16 бит
Метод сжатия : С потерями
Размер потока : 1,92 Гбайт (14%)
Заголовок : VO, Горчаков
Язык : Russian
Default : Нет
Forced : Нет

Аудио #4
Идентификатор : 5
Формат : DTS
Формат/Информация : Digital Theater Systems
Режим : 16
Параметр Endianness формата : Big
Идентификатор кодека : A_DTS
Продолжительность : 3 ч. 2 м.
Вид битрейта : Постоянный
Битрейт : 1509 Кбит/сек
Каналы : 6 каналов
Расположение каналов : Front: L C R, Side: L R, LFE
Частота : 48,0 КГц
Битовая глубина : 24 бит
Метод сжатия : С потерями
Размер потока : 1,92 Гбайт (14%)
Язык : English
Default : Нет
Forced : Нет

Текст #1
Идентификатор : 6
Формат : UTF-8
Идентификатор кодека : S_TEXT/UTF8
Идентификатор кодека/Информация : UTF-8 Plain Text
Заголовок : forced
Язык : Russian
Default : Да
Forced : Нет

Текст #2
Идентификатор : 7
Формат : UTF-8
Идентификатор кодека : S_TEXT/UTF8
Идентификатор кодека/Информация : UTF-8 Plain Text
Язык : Russian
Default : Нет
Forced : Нет

Текст #3
Идентификатор : 8
Формат : UTF-8
Идентификатор кодека : S_TEXT/UTF8
Идентификатор кодека/Информация : UTF-8 Plain Text
Заголовок : Blu-ray CEE
Язык : Russian
Default : Нет
Forced : Нет

Текст #4
Идентификатор : 9
Формат : UTF-8
Идентификатор кодека : S_TEXT/UTF8
Идентификатор кодека/Информация : UTF-8 Plain Text
Язык : Ukrainian
Default : Нет
Forced : Нет

Текст #5
Идентификатор : 10
Формат : UTF-8
Идентификатор кодека : S_TEXT/UTF8
Идентификатор кодека/Информация : UTF-8 Plain Text
Язык : English
Default : Нет
Forced : Нет

Текст #6
Идентификатор : 11
Формат : UTF-8
Идентификатор кодека : S_TEXT/UTF8
Идентификатор кодека/Информация : UTF-8 Plain Text
Заголовок : SDH
Язык : English
Default : Нет
Forced : Нет

Меню
00:00:00.000 : en:Prologue: The Fall of Erebor
00:10:11.903 : en:"In a Hole in the Ground There Lived a Hobbit"
00:14:08.723 : en:Very Old Friends
00:17:27.255 : en:Mr. Baggins
00:18:44.623 : en:An Unexpected Party
00:23:16.604 : en:"Blunt the Knives"
00:27:59.469 : en:A Map, A Key and A Contract
00:36:04.871 : en:"Misty Mountains"
00:41:17.266 : en:"...The World Ahead"
00:46:30.830 : en:The Battle of Azanulbizar
00:53:04.181 : en:Radagast the Brown
00:58:07.651 : en:Trollshaws
00:59:55.300 : en:Roast Mutton
01:10:42.405 : en:A Troll-hoard
01:15:01.831 : en:The Hill of Sorcery
01:18:52.811 : en:Warg-scouts
01:24:56.925 : en:Rivendell
01:30:34.429 : en:A Short Rest
01:34:10.603 : en:Moon Runes
01:37:24.464 : en:The Defiler
01:39:03.479 : en:The Last Homely House
01:41:40.803 : en:The White Council
01:50:22.533 : en:"Why the Halfling?"
01:52:59.773 : en:Over Hill
01:59:06.348 : en:Under Hill
02:03:57.513 : en:The Great Goblin
02:09:51.575 : en:Riddles in the Dark
02:23:21.426 : en:Biter and Beater
02:25:18.877 : en:The Ring
02:26:31.199 : en:Escape from Goblin Town
02:30:52.919 : en:The Pity of Bilbo
02:33:00.546 : en:"Home is Behind..."
02:35:52.593 : en:Out of the Frying Pan...
02:46:51.210 : en:A Good Omen
02:52:21.373 : en:Credits
Свернуть
Скриншоты
Изображение
Изображение
Изображение
Свернуть
 bazanoff нравится это.
Не в сети
Профиль  
Начать новую темуОтветить на тему  [ 1 сообщение ] 
Вы не можете начинать темы
Вы не можете отвечать на сообщения
Вы не можете редактировать свои сообщения
Вы не можете удалять свои сообщения