Правила форума

  • В этом разделе создание новых тем Запрещено.
  • Для создания новых тем пользуйтесь Корневым разделом DVD и HD фильмы.
Начать новую темуОтветить на тему  [ Сообщений: 4 ] 
Торрент файл
Размер: 7.96 GB • Зарегистрирован: 2 года 8 месяцев • Статус: Проверено
Скачан: 234 раза • Желающих скачать: 0 • Поблагодарили: 94 раза
 Раздают: 0  |  0 KB/s  ]   Качают: 0  |  0 KB/s  ] 
 Полного источника не было 3 часа 
Сообщения
 Добавлено: 2014-03-24 04:35
DVD Release Group
Аватара пользователя
Стаж: 7 лет 1 месяц
Сообщений: 3563
Спасибок: 247494
Лайков: 1020
Хоббит: Пустошь Смауга

The Hobbit: The Desolation of Smaug


Изображение


Год выпуска: 2013
Страна: США, Новая Зеландия
Жанр: Фэнтези, приключения
Продолжительность: 02:41:17
Перевод: Профессиональный (полное дублирование)
Субтитры: Русские (Forced, Full), английские (Full), китайские
Режиссер: Питер Джексон
В ролях: Мартин Фриман, Иэн МакКеллен, Ричард Армитедж, Джеймс Несбитт, Кен Стотт, Грэм МакТавиш, Уильям Кирчер, Стивен Хантер, Дин О’Горман, Эйдан Тернер
Описание: После успешного перехода через Туманные горы Торин и компания вынуждены обратиться за помощью к могучему незнакомцу, прежде чем отправиться в опасное Лихолесье без волшебника. Их компания обязана завершить своё путешествие к Одинокой горе, где Бэггинсу нужно будет найти потайную дверь, чтобы добраться до клада Смауга…
Изображение Изображение
Sample:
http://multi-up.com/962131
Качество: BDRip 720p
Формат: MKV
Видео кодек: H.264
Аудио кодек: AC3, DTS
Видео: 1280x534 23.98fps 5100kbps
Аудио:
Аудио Rus: AC3 48kHz 6ch 448kbps
Аудио Eng: DTS 48kHz 6ch 1510kbps
"MediaInfo"
Формат : Matroska
Версия формата : Version 2
Размер файла : 7,96 Гбайт
Продолжительность : 2 ч. 41 м.
Общий поток : 7068 Кбит/сек
Название фильма : Хоббит: Пустошь Смауга
Дата кодирования : UTC 2014-03-26 08:22:48
Программа кодирования : mkvmerge v5.1.0 ('And so it goes') built on Nov 28 2011 23:58:28
Библиотека кодирования : libebml v1.2.3 + libmatroska v1.3.0

Видео
Идентификатор : 1
Формат : AVC
Формат/Информация : Advanced Video Codec
Профиль формата : High@L4.1
Параметр CABAC формата : Да
Параметр ReFrames формата : 12 кадров
Идентификатор кодека : V_MPEG4/ISO/AVC
Продолжительность : 2 ч. 41 м.
Битрейт : 5100 Кбит/сек
Ширина : 1280 пикселей
Высота : 534 пикселя
Соотношение сторон : 2,40:1
Частота кадров : 23,976 кадра/сек
Цветовое пространство : YUV
Субдискретизация насыщенности : 4:2:0
Битовая глубина : 8 бит
Тип развёртки : Прогрессивная
Бит/(Пиксели*Кадры) : 0.311
Размер потока : 5,60 Гбайт (70%)
Заголовок : The Hobbit: The Desolation of Smaug.2013.BDRip.720p
Библиотека кодирования : x264 core 142 r2409+42 04be48a tMod [8-bit@4:2:0 X86_64]
Настройки программы : cabac=1 / ref=12 / deblock=1:-3:-2 / analyse=0x3:0x113 / me=umh / subme=11 / psy=1 / fade_compensate=0.00 / psy_rd=1.00:0.00 / mixed_ref=1 / me_range=32 / chroma_me=1 / trellis=2 / 8x8dct=1 / cqm=0 / deadzone=21,11 / fast_pskip=0 / chroma_qp_offset=-2 / threads=18 / lookahead_threads=3 / sliced_threads=0 / nr=0 / decimate=0 / interlaced=0 / bluray_compat=0 / constrained_intra=0 / fgo=0 / bframes=8 / b_pyramid=2 / b_adapt=2 / b_bias=0 / direct=3 / weightb=1 / open_gop=0 / weightp=2 / keyint=240 / keyint_min=24 / scenecut=40 / intra_refresh=0 / rc=2pass / mbtree=0 / bitrate=5100 / ratetol=1.0 / qcomp=0.70 / qpmin=0:0:0 / qpmax=69:69:69 / qpstep=4 / cplxblur=20.0 / qblur=0.5 / ip_ratio=1.20 / pb_ratio=1.20 / aq=4:0.80 / aq-sensitivity=10.00 / aq-factor=1.00:1.00:1.00 / aq2=0 / aq3=0
Язык : English
Default : Да
Forced : Нет

Аудио #1
Идентификатор : 2
Формат : AC-3
Формат/Информация : Audio Coding 3
Расширение режима : CM (complete main)
Идентификатор кодека : A_AC3
Продолжительность : 2 ч. 41 м.
Вид битрейта : Постоянный
Битрейт : 448 Кбит/сек
Каналы : 6 каналов
Расположение каналов : Front: L C R, Side: L R, LFE
Частота : 48,0 КГц
Битовая глубина : 16 бит
Метод сжатия : С потерями
Размер потока : 517 Мбайт (6%)
Заголовок : Dub [Blu-ray CEE]
Язык : Russian
Default : Да
Forced : Да

Аудио #2
Идентификатор : 3
Формат : DTS
Формат/Информация : Digital Theater Systems
Идентификатор кодека : A_DTS
Продолжительность : 2 ч. 41 м.
Вид битрейта : Постоянный
Битрейт : 1510 Кбит/сек
Каналы : 6 каналов
Расположение каналов : Front: L C R, Side: L R, LFE
Частота : 48,0 КГц
Битовая глубина : 24 бит
Метод сжатия : С потерями
Задержка видео : 11 мс.
Размер потока : 1,70 Гбайт (21%)
Заголовок : The Hobbit: The Desolation of Smaug.2013.BDRip.720p-HDWinG
Язык : English
Default : Нет
Forced : Нет

Текст #1
Идентификатор : 4
Формат : UTF-8
Идентификатор кодека : S_TEXT/UTF8
Идентификатор кодека/Информация : UTF-8 Plain Text
Заголовок : Forced
Язык : Russian
Default : Да
Forced : Да

Текст #2
Идентификатор : 5
Формат : UTF-8
Идентификатор кодека : S_TEXT/UTF8
Идентификатор кодека/Информация : UTF-8 Plain Text
Заголовок : Full
Язык : Russian
Default : Нет
Forced : Нет

Текст #3
Идентификатор : 6
Формат : UTF-8
Идентификатор кодека : S_TEXT/UTF8
Идентификатор кодека/Информация : UTF-8 Plain Text
Язык : English
Default : Нет
Forced : Нет

Текст #4
Идентификатор : 7
Формат : PGS
Режим смешивания : zlib
Идентификатор кодека : S_HDMV/PGS
Идентификатор кодека/Информация : The same subtitle format used on BDs/HD-DVDs
Язык : English
Default : Нет
Forced : Нет

Текст #5
Идентификатор : 8
Формат : UTF-8
Идентификатор кодека : S_TEXT/UTF8
Идентификатор кодека/Информация : UTF-8 Plain Text
Язык : Chinese
Default : Нет
Forced : Нет

Меню
00:00:00.000 : en:00:00:00.000
00:05:44.094 : en:00:05:44.094
00:10:10.985 : en:00:10:10.985
00:11:10.128 : en:00:11:10.128
00:13:50.204 : en:00:13:50.204
00:17:12.657 : en:00:17:12.657
00:21:25.326 : en:00:21:25.326
00:24:33.472 : en:00:24:33.472
00:33:03.273 : en:00:33:03.273
00:36:05.747 : en:00:36:05.747
00:39:38.960 : en:00:39:38.960
00:41:29.654 : en:00:41:29.654
00:44:27.290 : en:00:44:27.290
00:55:01.757 : en:00:55:01.757
00:58:41.768 : en:00:58:41.768
01:02:05.138 : en:01:02:05.138
01:05:29.592 : en:01:05:29.592
01:09:06.267 : en:01:09:06.267
01:11:29.118 : en:01:11:29.118
01:13:11.762 : en:01:13:11.762
01:19:14.959 : en:01:19:14.959
01:20:48.469 : en:01:20:48.469
01:23:12.529 : en:01:23:12.529
01:27:09.641 : en:01:27:09.641
01:30:45.482 : en:01:30:45.482
01:33:29.813 : en:01:33:29.813
01:41:57.194 : en:01:41:57.194
01:42:24.472 : en:01:42:24.472
01:44:08.033 : en:01:44:08.033
01:47:34.114 : en:01:47:34.114
01:56:46.333 : en:01:56:46.333
01:57:28.917 : en:01:57:28.917
01:58:03.410 : en:01:58:03.410
01:59:42.300 : en:01:59:42.300
02:01:30.575 : en:02:01:30.575
02:04:04.312 : en:02:04:04.312
02:07:58.462 : en:02:07:58.462
02:09:43.109 : en:02:09:43.109
02:10:58.642 : en:02:10:58.642
02:12:31.443 : en:02:12:31.443
02:13:54.318 : en:02:13:54.318
02:16:25.427 : en:02:16:25.427
02:18:51.490 : en:02:18:51.490
02:26:03.588 : en:02:26:03.588
02:30:51.209 : en:02:30:51.209
Свернуть

"Скриншоты"
Изображение
Изображение
Изображение
Изображение
Изображение
Изображение
Изображение
Изображение
Изображение
Свернуть


Последний раз редактировалось rastor 2014-03-26 15:31, всего редактировалось 1 раз.
Не в сети
Профиль  
 Добавлено: 2014-03-26 08:40 (спустя 2 дня 4 часа)
Аватара пользователя
Стаж: 7 лет 8 месяцев
Сообщений: 136
Лайков: 1
а есть в этом же качестве только лицензия? :)
Не в сети
Профиль  
 Добавлено: 2014-03-26 08:54 (спустя 13 минут)
DVD Release Group
Аватара пользователя
Стаж: 7 лет 1 месяц
Сообщений: 3563
Спасибок: 247494
Лайков: 1020
BOMBA777
А вас звук не устраивает?
 Swen191 нравится это.
Не в сети
Профиль  
 Добавлено: 2014-03-26 09:18 (спустя 23 минуты)
Аватара пользователя
Стаж: 7 лет 8 месяцев
Сообщений: 136
Лайков: 1
Извините, просто не просвещенный в этих делах :du_ma_et: , но как показывает практика, если пишут что c itunes звук,то не при воспроизведении файла звук отличается, чем в лицензионной раздаче. Может в двух словах объясните почему так? :ne_znayu:
Не в сети
Профиль  
Начать новую темуОтветить на тему  [ Сообщений: 4 ] 
Вы не можете начинать темы
Вы не можете отвечать на сообщения
Вы не можете редактировать свои сообщения
Вы не можете удалять свои сообщения