Правила форума

  • В этом разделе создание новых тем Запрещено.
  • Для создания новых тем пользуйтесь Корневым разделом DVD и HD фильмы.
Начать новую темуОтветить на тему  [ Сообщений: 3 ] 
Торрент файл
Размер: 13.62 GB • Зарегистрирован: 2 года 1 месяц • Статус: Проверено
Скачан: 272 раза • Желающих скачать: 0 • Поблагодарили: 72 раза
 Раздают: 3  |  351 KB/s  ]   Качают: 0  |  0 KB/s  ] 
Сообщения
 Добавлено: 2014-10-24 21:25
DVD Release Group
Аватара пользователя
Стаж: 7 лет 1 месяц
Сообщений: 3548
Спасибок: 247042
Лайков: 1018
Хоббит: Пустошь Смауга

The Hobbit: The Desolation of Smaug


Изображение


Год выпуска: 2013
Страна: США, Новая Зеландия
Жанр: Фэнтези, приключения
Продолжительность: 03:06:34
Перевод: Профессиональный (полное дублирование)
Субтитры: Russian (forced) - вшиты только на речь Орков и Эльфов
Примечание: EXTENDED - Расширенная режиссерская версия, длиннее театральной на 25 минут! Полный лицензионный дублированный перевод!
Режиссер: Питер Джексон
В ролях: Мартин Фриман, Иэн МакКеллен, Ричард Армитедж, Джеймс Несбитт, Кен Стотт, Грэм МакТавиш, Уильям Кирчер, Стивен Хантер, Дин О’Горман, Эйдан Тернер
Описание: После успешного перехода через Туманные горы Торин и компания вынуждены обратиться за помощью к могучему незнакомцу, прежде чем отправиться в опасное Лихолесье без волшебника. Их компания обязана завершить своё путешествие к Одинокой горе, где Бэггинсу нужно будет найти потайную дверь, чтобы добраться до клада Смауга…
Изображение
Sample:
http://multi-up.com/1007936
Качество: BDRip 1080p
Формат: MKV
Видео кодек: H.264
Аудио кодек: AC3, DTS
Видео: 1920x800 23.98fps 8554kbps
Аудио:
Аудио Rus: AC3 48kHz 6ch 384kbps
Аудио Eng: DTS 48kHz 6ch 1510kbps
"MediaInfo"
Формат : Matroska
Версия формата : Version 4 / Version 2
Размер файла : 13,6 Гбайт
Продолжительность : 3 ч. 6 м.
Общий поток : 10,4 Мбит/сек
Дата кодирования : UTC 2014-10-23 02:00:09
Программа кодирования : mkvmerge v6.1.0 ('Old Devil') built on Mar 4 2013 09:10:42
Библиотека кодирования : libebml v1.3.0 + libmatroska v1.4.0

Видео
Идентификатор : 1
Формат : AVC
Формат/Информация : Advanced Video Codec
Профиль формата : High@L4.1
Параметр CABAC формата : Да
Параметр ReFrames формата : 5 кадров
Идентификатор кодека : V_MPEG4/ISO/AVC
Продолжительность : 3 ч. 6 м.
Битрейт : 8554 Кбит/сек
Ширина : 1920 пикселей
Высота : 800 пикселей
Соотношение сторон : 2,40:1
Режим частоты кадров : Постоянный
Частота кадров : 23,976 кадра/сек
Цветовое пространство : YUV
Субдискретизация насыщенности : 4:2:0
Битовая глубина : 8 бит
Тип развёртки : Прогрессивная
Бит/(Пиксели*Кадры) : 0.232
Размер потока : 10,9 Гбайт (80%)
Библиотека кодирования : x264 core 142 r2479 dd79a61
Настройки программы : cabac=1 / ref=5 / deblock=1:0:0 / analyse=0x3:0x133 / me=umh / subme=7 / psy=1 / psy_rd=1.00:0.00 / mixed_ref=1 / me_range=16 / chroma_me=1 / trellis=1 / 8x8dct=1 / cqm=0 / deadzone=21,11 / fast_pskip=0 / chroma_qp_offset=-2 / threads=18 / lookahead_threads=3 / sliced_threads=0 / nr=0 / decimate=1 / interlaced=0 / bluray_compat=0 / constrained_intra=0 / bframes=3 / b_pyramid=2 / b_adapt=1 / b_bias=0 / direct=1 / weightb=1 / open_gop=0 / weightp=2 / keyint=250 / keyint_min=23 / scenecut=40 / intra_refresh=0 / rc_lookahead=40 / rc=2pass / mbtree=1 / bitrate=8554 / ratetol=1.0 / qcomp=0.60 / qpmin=0 / qpmax=69 / qpstep=4 / cplxblur=20.0 / qblur=0.5 / ip_ratio=1.40 / aq=1:1.00
Язык : English
Default : Да
Forced : Нет

Аудио #1
Идентификатор : 2
Формат : AC-3
Формат/Информация : Audio Coding 3
Расширение режима : CM (complete main)
Параметр Endianness формата : Big
Идентификатор кодека : A_AC3
Продолжительность : 3 ч. 6 м.
Вид битрейта : Постоянный
Битрейт : 384 Кбит/сек
Каналы : 6 каналов
Расположение каналов : Front: L C R, Side: L R, LFE
Частота : 48,0 КГц
Битовая глубина : 16 бит
Метод сжатия : С потерями
Размер потока : 513 Мбайт (4%)
Язык : Russian
Default : Нет
Forced : Нет

Аудио #2
Идентификатор : 3
Формат : DTS
Формат/Информация : Digital Theater Systems
Режим : 16
Параметр Endianness формата : Big
Идентификатор кодека : A_DTS
Продолжительность : 3 ч. 6 м.
Вид битрейта : Постоянный
Битрейт : 1509 Кбит/сек
Каналы : 6 каналов
Расположение каналов : Front: L C R, Side: L R, LFE
Частота : 48,0 КГц
Битовая глубина : 24 бит
Метод сжатия : С потерями
Размер потока : 1,97 Гбайт (14%)
Язык : English
Default : Нет
Forced : Нет

Текст
Идентификатор : 4
Формат : UTF-8
Идентификатор кодека : S_TEXT/UTF8
Идентификатор кодека/Информация : UTF-8 Plain Text
Язык : Russian
Default : Да
Forced : Нет

Меню
00:00:00.000 : en:00:00:00.000
00:07:33.411 : en:00:07:33.411
00:12:00.303 : en:00:12:00.303
00:12:59.445 : en:00:12:59.445
00:15:55.371 : en:00:15:55.371
00:20:56.922 : en:00:20:56.922
00:23:15.436 : en:00:23:15.436
00:25:52.676 : en:00:25:52.676
00:29:59.256 : en:00:29:59.256
00:38:14.042 : en:00:38:14.042
00:46:43.843 : en:00:46:43.843
00:49:46.317 : en:00:49:46.317
00:53:19.530 : en:00:53:19.530
00:55:10.224 : en:00:55:10.224
00:58:07.859 : en:00:58:07.859
01:08:42.327 : en:01:08:42.327
01:12:22.338 : en:01:12:22.338
01:15:45.708 : en:01:15:45.708
01:19:10.162 : en:01:19:10.162
01:22:46.837 : en:01:22:46.837
01:25:09.688 : en:01:25:09.688
01:28:07.741 : en:01:28:07.741
01:31:15.553 : en:01:31:15.553
01:36:02.757 : en:01:36:02.757
01:37:35.892 : en:01:37:35.892
01:40:35.404 : en:01:40:35.404
01:45:16.519 : en:01:45:16.519
01:48:44.476 : en:01:48:44.476
01:50:31.750 : en:01:50:31.750
01:52:36.541 : en:01:52:36.541
01:53:08.448 : en:01:53:08.448
01:59:16.358 : en:01:59:16.358
02:07:11.833 : en:02:07:11.833
02:07:39.110 : en:02:07:39.110
02:09:22.672 : en:02:09:22.672
02:12:48.586 : en:02:12:48.586
02:22:00.846 : en:02:22:00.846
02:22:43.430 : en:02:22:43.430
02:23:17.923 : en:02:23:17.923
02:24:56.396 : en:02:24:56.396
02:26:45.088 : en:02:26:45.088
02:29:18.825 : en:02:29:18.825
02:33:12.975 : en:02:33:12.975
02:34:57.622 : en:02:34:57.622
02:36:13.155 : en:02:36:13.155
02:37:45.956 : en:02:37:45.956
02:39:08.831 : en:02:39:08.831
02:41:39.940 : en:02:41:39.940
02:44:06.003 : en:02:44:06.003
02:51:16.683 : en:02:51:16.683
02:56:05.555 : en:02:56:05.555
Свернуть

"Скриншоты"
Изображение
Изображение
Изображение
Изображение
Изображение
Изображение
Свернуть
Не в сети
Профиль  
 Добавлено: 2014-10-24 22:43 (спустя 1 час 18 минут)
Аватара пользователя
Стаж: 8 лет 3 месяца
Сообщений: 31
Лайков: 1
Спасибо.
Не в сети
Профиль  
 Добавлено: 2014-10-25 08:03 (спустя 9 часов)
Модератор
Аватара пользователя
Стаж: 8 лет 3 месяца
Возраст: 22
Сообщений: 1903
Спасибок: 1500
Лайков: 5
rastor
А 3D Extended стоит ждать?
Не в сети
Профиль  
Начать новую темуОтветить на тему  [ Сообщений: 3 ] 
Вы не можете начинать темы
Вы не можете отвечать на сообщения
Вы не можете редактировать свои сообщения
Вы не можете удалять свои сообщения