Правила форума

  • В этом разделе создание новых тем Запрещено.
  • Для создания новых тем пользуйтесь Корневым разделом DVD и HD фильмы.
Начать новую темуОтветить на тему  [ 1 сообщение ] 
Торрент файл
Размер: 4.48 GB • Зарегистрирован: 2 года 10 месяцев • Статус: Проверено
Скачан: 28 раз • Желающих скачать: 0 • Поблагодарили: 10 раз
 Раздают: 0  |  0 KB/s  ]   Качают: 0  |  0 KB/s  ] 
 Полного источника не было 9 месяцев 
Сообщения
 Добавлено: 2014-01-06 14:25
Книголюб
Аватара пользователя
Стаж: 7 лет 2 месяца
Сообщений: 2823
Спасибок: 48823
Лайков: 73
Хочу как Бриджет
Joséphine

«Размер не имеет значения!»

Изображение


Год выпуска: 2013
Страна: Франция
Жанр: комедия
Продолжительность: 01:28:28
Перевод: Профессиональный (многоголосый закадровый)

Режиссёр: Аньес Обадья
В ролях: Марилу Берри, Мехди Неббу, Беренжер Криф, Армель Чахби, Сирил Гуи, Шарли Дюпон, Алис Поль, Каролин Англад, Брюно Подалидес, Арбен Байрактарай
Описание: Жозефине почти тридцать и у неё большая попа, которая, по её мнению, является главной причиной отсутствия личной жизни. Девушка отчаянно пытается бороться со своей пятой точкой липосакциями и антицеллюлитными мочалками, но всё тщетно. Единственным утешением является то, что она живёт с Брэдом Питтом — именно так зовут ее кота. Но последней каплей станет известие о том, что её сестра выходит замуж. Не в силах смириться с тем, что все вокруг нашли себе половинок, Жозефина придумывает роман с бразильским хирургом, к которому она якобы улетает за океан. И эта маленькая легенда превращает её жизнь в большое приключение со счастливым концом.
Мировая премьера: 12 июня 2013
Премьера в России: 3 октября 2013, «Каравелла DDC»
Изображение 6.1761050

Качество: HQRip 720р.
Формат: MKV
Видео кодек: H.264
Аудио кодек: AC3 (Dolby Digital)
Видео: 1280x696 24fps 5 559 Kbps
Аудио #1: RUS:Dolby AC3 48000Hz stereo 192 Kbps
Аудио #2: French:DTS 48000Hz 6ch 1 510 Kbps
MediaInfo
General
Unique ID : 225752103443438888465684211443021091455 (0xA9D6460AD8D63F7D9A5BED04A22B927F)
Complete name : K:\Torrent\Hochu kak Bridzhet.mkv
Format : Matroska
Format version : Version 2
File size : 4.48 GiB
Duration : 1h 28mn
Overall bit rate : 7 254 Kbps
Encoded date : UTC 2013-12-09 13:53:05
Writing application : mkvmerge v5.7.0 ('The Whirlwind') built on Jul 29 2012 15:12:35
Writing library : libebml v1.2.3 + libmatroska v1.3.0

Video
ID : 1
Format : AVC
Format/Info : Advanced Video Codec
Format profile : High@L4.1
Format settings, CABAC : Yes
Format settings, ReFrames : 5 frames
Muxing mode : Header stripping
Codec ID : V_MPEG4/ISO/AVC
Duration : 1h 28mn
Bit rate : 5 559 Kbps
Width : 1 280 pixels
Height : 696 pixels
Display aspect ratio : 16:9
Frame rate : 24.000 fps
Color space : YUV
Chroma subsampling : 4:2:0
Bit depth : 8 bits
Scan type : Progressive
Bits/(Pixel*Frame) : 0.260
Stream size : 3.34 GiB (75%)
Writing library : x264 core 140 r2377 1ca7bb9
Encoding settings : cabac=1 / ref=5 / deblock=1:0:0 / analyse=0x3:0x133 / me=umh / subme=8 / psy=1 / psy_rd=1.00:0.00 / mixed_ref=1 / me_range=16 / chroma_me=1 / trellis=1 / 8x8dct=1 / cqm=0 / deadzone=21,11 / fast_pskip=0 / chroma_qp_offset=-2 / threads=24 / lookahead_threads=4 / sliced_threads=0 / nr=0 / decimate=1 / interlaced=0 / bluray_compat=0 / constrained_intra=0 / bframes=3 / b_pyramid=2 / b_adapt=1 / b_bias=0 / direct=1 / weightb=1 / open_gop=0 / weightp=2 / keyint=250 / keyint_min=24 / scenecut=40 / intra_refresh=0 / rc=2pass / mbtree=0 / bitrate=5559 / ratetol=1.0 / qcomp=0.60 / qpmin=0 / qpmax=69 / qpstep=4 / cplxblur=20.0 / qblur=0.5 / ip_ratio=1.40 / pb_ratio=1.30 / aq=1:1.00
Language : English
Default : Yes
Forced : No

Audio #1
ID : 2
Format : AC-3
Format/Info : Audio Coding 3
Mode extension : CM (complete main)
Muxing mode : Header stripping
Codec ID : A_AC3
Duration : 1h 28mn
Bit rate mode : Constant
Bit rate : 192 Kbps
Channel(s) : 2 channels
Channel positions : Front: L R
Sampling rate : 48.0 KHz
Bit depth : 16 bits
Compression mode : Lossy
Stream size : 121 MiB (3%)
Language : Russian
Default : Yes
Forced : No

Audio #2
ID : 3
Format : DTS
Format/Info : Digital Theater Systems
Muxing mode : Header stripping
Codec ID : A_DTS
Duration : 1h 28mn
Bit rate mode : Constant
Bit rate : 1 510 Kbps
Channel(s) : 6 channels
Channel positions : Front: L C R, Side: L R, LFE
Sampling rate : 48.0 KHz
Bit depth : 24 bits
Compression mode : Lossy
Stream size : 955 MiB (21%)
Title : French
Language : French
Default : No
Forced : No

Menu
00:00:00.000 : en:00:00:00.000
00:06:25.542 : en:00:06:25.542
00:12:58.958 : en:00:12:58.958
00:16:56.625 : en:00:16:56.625
00:25:02.542 : en:00:25:02.542
00:35:59.333 : en:00:35:59.333
00:39:55.375 : en:00:39:55.375
00:43:52.208 : en:00:43:52.208
00:49:00.208 : en:00:49:00.208
01:01:46.625 : en:01:01:46.625
01:10:38.333 : en:01:10:38.333
01:18:28.000 : en:01:18:28.000


Свернуть

Скриншоты
Изображение
Изображение
Изображение
Свернуть
Не в сети
Профиль  
Начать новую темуОтветить на тему  [ 1 сообщение ] 
Вы не можете начинать темы
Вы не можете отвечать на сообщения
Вы не можете редактировать свои сообщения
Вы не можете удалять свои сообщения