Правила форума

  • В этом разделе создание новых тем Запрещено.
  • Для создания новых тем пользуйтесь Корневым разделом DVD и HD фильмы.
Начать новую темуОтветить на тему  [ Сообщений: 4 ] 
Торрент файл
Размер: 17.42 GB • Зарегистрирован: 4 года 11 месяцев • Статус: Проверено
Скачан: 118 раз • Желающих скачать: 0 • Поблагодарили: 29 раз
 Раздают: 0  |  0 KB/s  ]   Качают: 0  |  0 KB/s  ] 
 Полного источника не было 10 дней 
Сообщения
 Добавлено: 2011-12-25 14:07
Top-releaser
Аватара пользователя
Стаж: 8 лет 9 месяцев
Сообщений: 479
Спасибок: 20187
Лайков: 16
Изображение

Хочу как ты

The Change-Up


«Иногда мужчины меняются»


Год выпуска: 2011
Страна: Изображение США; Big Kid Pictures
Жанр: Комедия
Продолжительность: 01:52:32
Перевод: Профессиональный (дублированный) [Лицензия], Оригинал
Субтитры: Русские (форсированые), английские

Режиссёр: Дэвид Добкин / David Dobkin

В ролях: Райан Рейнольдс, Джейсон Бейтман, Лесли Манн, Оливия Уайлд, Алан Аркин, Мирчи Монро, Грегори Итцин, Нед Шмидтке, Ло Минг, Сидни Рувьер

Описание: В детстве Митч и Дейв были неразлучными друзьями. Но со временем их дороги разошлись. Дейв стал успешным юристом и примерным семьянином. Митч же остался холостяком и сердцеедом. Он считает, что у друга есть все, о чем только можно мечтать: прекрасная жена Джейми, любящие дети и крутая работа. Дейву же представляется сказочной беззаботная жизнь Митча, который днем курит травку, а ночи проводит в компании красивых женщин.

Но однажды в жизни друзей все переворачивается вверх дном: Митч становится Дейвом, а Дейв — Митчем.

Митчу приходится заняться воспитанием троих детей Дейва и взять на себя его работу. На носу — крупная сделка, от результатов которой зависит карьера его друга, но Митч не смыслит в этом ничего.

Ситуацию также усложняет обворожительная коллега Дейва, Сабрина, которая не дает прохода Митчу. Старый Митч пошел бы на все, чтобы провести время с этой девушкой. Проблема лишь в том, что в его теле живет Дейв, идеальный муж и папаша, который не может расслабиться ни на минуту.

Друзья вскоре понимают, что реальность не такая радужная, как фантазии.

Героям придется как следует постараться, чтобы вернуть все на свое место и не разрушить окончательно жизни друг друга.



Качество: BDRemux
Формат: MKV

Видео: AVC, 1920x1080, 18192 kbps, 23.976 fps

Аудио 1: AC3 Dolby Digital, 384 Кбит/сек, 6 канала(ов), 48,0 КГц [Дубляж]
Аудио 2: DTS at 2455 Кбит/сек / 1510 Кбит/сек, 6 канала(ов), 48,0 КГц [Оригинал]

Раздача: Изображение

Изображение
MediaInfo

Общее
Уникальный идентификатор : 254568823365781156238143663401432725096 (0xBF842C070FE25C74B5EED8A237173668)
Полное имя : C:\Users\Домашний\Desktop\Hochu.kak.ty(Teatralnaja.versija).2011.Remux(1080p)[nntt].mkv
Формат : Matroska
Размер файла : 17,4 Гбайт
Продолжительность : 1 ч. 52 м.
Общий поток : 22,2 Мбит/сек
Название фильма : --SCHUMAHER--
Дата кодирования : UTC 2011-12-23 20:24:22
Программа кодирования : mkvmerge v5.2.0 ('I can't explain') built on Dec 18 2011 18:12:03
Библиотека кодирования : libebml v1.2.3 + libmatroska v1.3.0

Видео
Идентификатор : 1
Формат : AVC
Формат/Информация : Advanced Video Codec
Профиль формата : High@L4.1
Параметр CABAC формата : Да
Параметр ReFrames формата : 4 кадры
Идентификатор кодека : V_MPEG4/ISO/AVC
Продолжительность : 1 ч. 52 м.
Вид битрейта : Переменный
Битрейт : 18,9 Мбит/сек
Максимальный битрейт : 35,0 Мбит/сек
Ширина : 1920 пикс.
Высота : 1080 пикс.
Соотношение сторон : 16:9
Частота кадров : 23,976 кадр/сек
Цветовое пространство : YUV
Подвыборка цветности : 4:2:0
Битовая глубина : 8 бит
Тип развёртки : Прогрессивная
Бит/(Пиксели*Кадры) : 0.380
Размер потока : 14,8 Гбайт (85%)
Язык : English
Основные цвета : BT.709-5, BT.1361, IEC 61966-2-4, SMPTE RP177
Характеристики трансфера : BT.709-5, BT.1361
Коэффициенты матрицы : BT.709-5, BT.1361, IEC 61966-2-4 709, SMPTE RP177

Аудио #1
Идентификатор : 2
Формат : AC-3
Формат/Информация : Audio Coding 3
Расширение режима : CM (complete main)
Идентификатор кодека : A_AC3
Продолжительность : 1 ч. 52 м.
Вид битрейта : Постоянный
Битрейт : 384 Кбит/сек
Канал(ы) : 6 канала(ов)
Расположение каналов : Front: L C R, Side: L R, LFE
Частота : 48,0 КГц
Битовая глубина : 16 бит
Метод сжатия : С потерями
Размер потока : 309 Мбайт (2%)
Язык : Russian

Аудио #2
Идентификатор : 3
Формат : DTS
Формат/Информация : Digital Theater Systems
Профиль формата : MA / Core
Идентификатор кодека : A_DTS
Продолжительность : 1 ч. 52 м.
Вид битрейта : Переменный
Битрейт : 2455 Кбит/сек / 1510 Кбит/сек
Канал(ы) : 6 канала(ов)
Расположение каналов : Front: L C R, Side: L R, LFE
Частота : 48,0 КГц
Битовая глубина : 24 бит
Метод сжатия : Без потерь / Lossy
Язык : English

Текст #1
Идентификатор : 4
Формат : PGS
Идентификатор кодека : S_HDMV/PGS
Идентификатор кодека/Информация : The same subtitle format used on BDs/HD-DVDs
Язык : Russian

Текст #2
Идентификатор : 5
Формат : PGS
Идентификатор кодека : S_HDMV/PGS
Идентификатор кодека/Информация : The same subtitle format used on BDs/HD-DVDs
Язык : English

Меню
00:00:00.000 : en:
00:03:25.038 : en:
00:09:23.729 : en:
00:16:46.880 : en:
00:23:17.270 : en:
00:28:29.206 : en:
00:34:43.372 : en:
00:40:42.606 : en:
00:46:20.235 : en:
00:53:00.635 : en:
00:58:16.451 : en:
01:03:25.468 : en:
01:08:38.322 : en:
01:12:22.212 : en:
01:18:03.345 : en:
01:24:40.742 : en:
01:28:30.138 : en:
01:36:13.684 : en:
01:38:55.720 : en:
01:46:48.693 : en:


Свернуть
Скриншоты

Изображение
Изображение
Изображение
Изображение
Изображение
Свернуть
_________________
Изображение
Изображение
Не в сети
Профиль  
 Добавлено: 2011-12-25 23:29 (спустя 9 часов)
Модератор
Аватара пользователя
Стаж: 6 лет 10 месяцев
Возраст: 33
Сообщений: 5908
Спасибок: 61239
Лайков: 3540
Спасибо, заценим.
_________________
ИзображениеИзображение Изображение
Изображение
Не в сети
Профиль  
 Добавлено: 2011-12-28 14:25 (спустя 2 дня 14 часов)
Стаж: 5 лет 3 месяца
Сообщений: 150
Лайков: 1
Фильм угарный)))
Не в сети
Профиль  
 Добавлено: 2012-01-02 14:16 (спустя 4 дня)
Стаж: 6 лет 8 месяцев
Сообщений: 4
Посмотрел фильм... впечатлило)
Автору спасибо за раздачу!
Не в сети
Профиль  
Начать новую темуОтветить на тему  [ Сообщений: 4 ] 
Вы не можете начинать темы
Вы не можете отвечать на сообщения
Вы не можете редактировать свои сообщения
Вы не можете удалять свои сообщения