Правила форума

  • В этом разделе создание новых тем Запрещено.
  • Для создания новых тем пользуйтесь Корневым разделом DVD и HD фильмы.
Начать новую темуОтветить на тему  [ 1 сообщение ] 
Торрент файл
Размер: 13.58 GB • Зарегистрирован: 3 года 9 месяцев • Статус: Проверено
Скачан: 138 раз • Желающих скачать: 0 • Поблагодарили: 23 раза
 Раздают: 0  |  0 KB/s  ]   Качают: 0  |  0 KB/s  ] 
 Полного источника не было 8 дней 
Сообщения
 Добавлено: 2013-02-13 23:22
Модератор
Аватара пользователя
Стаж: 8 лет 7 месяцев
Сообщений: 4965
Спасибок: 110253
Лайков: 18
Изображение

Хорошо быть тихоней / The Perks of Being a Wallflower


Год выпуска: 2012
Страна: США
Слоган: «Будь фильтром, а не губкой!»

Жанр: драма, мелодрама
Продолжительность: 01:42:40
Перевод: Профессиональный (полное дублирование)
Субтитры: Русские, английские
Режиссер: Стивен Чбоски
Сценарий: Стивен Чбоски
Продюсер: Лайан Халфон, Джон Малкович, Расселл Смит, Джиллиан Браун, Стивен Чбоски
Оператор: Эндрю Данн
Композитор: Майкл Брук

В ролях: Логан Лерман, Эмма Уотсон, Эзра Миллер, Дилан МакДермотт, Кейт Уолш, Патрик Де Ледебур, Джонни Симмонс, Брайан Балзерини, Том Крушевски, Нина Добрев, Николас Браун, Джулия Гарнер, Нина Добрев
Дублёры: Лина Иванова, Михаил Тихонов, Кирилл Туранский, Даниил Эльдаров, Иван Жарков
Сборы в США: $7 676 000
Сборы в России: $604 635

Мировая премьера: 8 сентября 2012
Описание: История о Чарли, первокурснике в Питтсбурге, стеснительном и непопулярном. Затрагиваются темы насилия, подросткового секса, переходного возраста, наркотиков и суицида, внимание акцентируется на дилемме пассивности и страсти. На наших глазах Чарли взрослеет, меняется круг его общения, меняется его мнение о мире.
Изображение 8.5/10 (8,962 users) Изображение 7.928 (2766)
MPAA: Изображение - Детям до 13 лет просмотр не желателен
Раздача группы: Изображение
Качество: BDRip 1080p
Формат: AVI

Видео: MPEG-4 AVC, 16.7 Мбит/с, 1920x1080
Аудио №1: Russian, (DTS, 6 ch, 768 Кбит/с)
Аудио №2: English, (DTS, 6 ch, 1510 Кбит/с)

"NFO"
Формат : Matroska
Версия формата : Version 4 / Version 2
Размер файла : 13,6 Гбайт
Продолжительность : 1 ч. 42 м.
Общий поток : 18,9 Мбит/сек
Дата кодирования : UTC 2013-02-13 15:13:19
Программа кодирования : mkvmerge v6.0.0 ('Coming Up For Air') built on Jan 20 2013 09:52:00
Библиотека кодирования : libebml v1.3.0 + libmatroska v1.4.0

Видео
Идентификатор : 1
Формат : AVC
Формат/Информация : Advanced Video Codec
Профиль формата : High@L4.1
Параметр CABAC формата : Да
Параметр ReFrames формата : 4 кадра
Идентификатор кодека : V_MPEG4/ISO/AVC
Продолжительность : 1 ч. 42 м.
Битрейт : 16,7 Мбит/сек
Ширина : 1920 пикселей
Высота : 1080 пикселей
Соотношение сторон : 16:9
Режим частоты кадров : Постоянный
Частота кадров : 23,976 кадра/сек
Цветовое пространство : YUV
Субдискретизация насыщенности : 4:2:0
Битовая глубина : 8 бит
Тип развёртки : Прогрессивная
Бит/(Пиксели*Кадры) : 0.336
Размер потока : 11,7 Гбайт (86%)
Библиотека кодирования : x264 core 125 r2208 d9d2288
Настройки программы : cabac=1 / ref=4 / deblock=1:1:1 / analyse=0x3:0x113 / me=umh / subme=10 / psy=1 / psy_rd=1.05:0.10 / mixed_ref=1 / me_range=48 / chroma_me=1 / trellis=2 / 8x8dct=1 / cqm=0 / deadzone=21,11 / fast_pskip=0 / chroma_qp_offset=-2 / threads=12 / lookahead_threads=2 / sliced_threads=0 / nr=0 / decimate=1 / interlaced=0 / bluray_compat=0 / constrained_intra=0 / bframes=6 / b_pyramid=2 / b_adapt=2 / b_bias=0 / direct=3 / weightb=1 / open_gop=0 / weightp=2 / keyint=250 / keyint_min=23 / scenecut=40 / intra_refresh=0 / rc=2pass / mbtree=0 / bitrate=16707 / ratetol=2.0 / qcomp=0.70 / qpmin=0 / qpmax=69 / qpstep=4 / cplxblur=20.0 / qblur=0.5 / ip_ratio=1.40 / pb_ratio=1.30 / aq=2:1.00
Язык : English
Default : Нет
Forced : Нет

Аудио #1
Идентификатор : 2
Формат : DTS
Формат/Информация : Digital Theater Systems
Идентификатор кодека : A_DTS
Продолжительность : 1 ч. 42 м.
Вид битрейта : Постоянный
Битрейт : 755 Кбит/сек
Каналы : 6 каналов
Расположение каналов : Front: L C R, Side: L R, LFE
Частота : 48,0 КГц
Битовая глубина : 24 бит
Метод сжатия : С потерями
Размер потока : 554 Мбайт (4%)
Язык : Russian
Default : Да
Forced : Нет

Аудио #2
Идентификатор : 3
Формат : DTS
Формат/Информация : Digital Theater Systems
Идентификатор кодека : A_DTS
Продолжительность : 1 ч. 42 м.
Вид битрейта : Постоянный
Битрейт : 1510 Кбит/сек
Каналы : 6 каналов
Расположение каналов : Front: L C R, Side: L R, LFE
Частота : 48,0 КГц
Битовая глубина : 24 бит
Метод сжатия : С потерями
Размер потока : 1,08 Гбайт (8%)
Язык : English
Default : Нет
Forced : Нет

Текст #1
Идентификатор : 4
Формат : UTF-8
Идентификатор кодека : S_TEXT/UTF8
Идентификатор кодека/Информация : UTF-8 Plain Text
Язык : Russian
Default : Нет
Forced : Нет

Текст #2
Идентификатор : 5
Формат : UTF-8
Идентификатор кодека : S_TEXT/UTF8
Идентификатор кодека/Информация : UTF-8 Plain Text
Язык : English
Default : Нет
Forced : Нет

Текст #3
Идентификатор : 6
Формат : UTF-8
Идентификатор кодека : S_TEXT/UTF8
Идентификатор кодека/Информация : UTF-8 Plain Text
Заголовок : SDH
Язык : English
Default : Нет
Forced : Нет

Меню
00:00:00.000 : en:00:00:00.000
00:05:04.387 : en:00:05:04.387
00:10:24.624 : en:00:10:24.624
00:17:06.984 : en:00:17:06.984
00:21:38.005 : en:00:21:38.005
00:28:31.501 : en:00:28:31.501
00:33:09.070 : en:00:33:09.070
00:39:55.351 : en:00:39:55.351
00:47:17.001 : en:00:47:17.001
00:54:38.859 : en:00:54:38.859
00:58:15.951 : en:00:58:15.951
01:03:17.961 : en:01:03:17.961
01:10:13.126 : en:01:10:13.126
01:18:31.790 : en:01:18:31.790
01:23:11.612 : en:01:23:11.612
01:31:12.384 : en:01:31:12.384
Свернуть
"Знаете ли Вы, что..."
  • Съёмки проходили в Питтсбурге с 9 мая по 29 июня.
  • Первоначально фильм получил рейтинг R от MPAA за «употребление алкоголя и наркотиков подростками, и сцены сексуального характера», но позже был изменен на PG-13 после апелляции на «материал взрослой тематики, употребление наркотиков и алкоголя, материалы сексуального характера, сцены драк - и все это с участием подростков».
  • Когда Патрик держит свой табель успеваемости, в верхней части написано имя «Patrick Nothing» (Патрик Ничто). В книге («The Perks of Being a Wallflower»), по которой снят фильм, Патрика все время называли Patty (Патти) и однажды он сказал: «Listen, you either call me Patrick or call me nothing» (Слушай, либо ты зовешь меня Патрик, либо вообще никак), так он получил свое прозвище «Nothing».
  • Во всех сценах в кафе плакаты с пирамидами из еды, которые можно видеть на стенах, обновленной версии 2011 года, а не такие какими они должны были быть в 1991 и 1992 годах.
Свернуть

"Скриншоты"

Изображение

Изображение

Изображение

Свернуть
_________________
Изображение Изображение Изображение
Билайн / АДС добавляйте ретрекер, чтобы качать на скорости 100 Мбит/с
Cкрытый текст
Изображение
Свернуть
Не в сети
Профиль  
Начать новую темуОтветить на тему  [ 1 сообщение ] 
Вы не можете начинать темы
Вы не можете отвечать на сообщения
Вы не можете редактировать свои сообщения
Вы не можете удалять свои сообщения