Правила форума

  • В этом разделе создание новых тем Запрещено.
  • Для создания новых тем пользуйтесь Корневым разделом DVD и HD фильмы.
Начать новую темуОтветить на тему  [ Сообщений: 3 ] 
Торрент файл
Размер: 5.98 GB • Зарегистрирован: 4 года 10 месяцев • Статус: Проверено
Скачан: 133 раза • Желающих скачать: 0 • Поблагодарили: 22 раза
 Раздают: 0  |  0 KB/s  ]   Качают: 0  |  0 KB/s  ] 
 Полного источника не было 2 года 9 месяцев 
Сообщения
 Добавлено: 2012-01-14 10:42
Top-releaser
Аватара пользователя
Стаж: 8 лет 9 месяцев
Сообщений: 479
Спасибок: 20187
Лайков: 16
Изображение

Хостел 3

Hostel: Part III





Год выпуска: 2011
Страна: Изображение США; Raw Nerve, Stage 6 Films, RCR Media Group
Жанр: Ужасы, триллер, детектив
Продолжительность: 01:27:46
Перевод: Профессиональный (многоголосый), Оригинал
Субтитры: Русские (форсированные), английские

Режиссёр: Скотт Спигел / Scott Spiegel

В ролях: Кип Парду, Брайан Хэллисей, Джон Хенсли, Сара Хабель, Крис Кой, Скайлер Стоун, Томас Кречманн, Зулей Хенао, Никола Шкрели, Деррик Карр

Описание: На этот раз события развернутся не в кровожадных притонах Словакии, а в Лас-Вегасе, где одна холостяцкая вечеринка пошла не совсем по плану — нас ожидает очередная кровавая бойня.


Качество: BDRip 1080p
Формат: MKV

Видео: MPEG-4 AVC, 9193 Кбит/с, 1920x1080, 23.976 кадр/с

Аудио 1: AC3, 6 ch, 384 Кбит/c, 48,0 КГц [Многоголосый]
Аудио 2: AC3, 2 ch, 192 Кбит/c, 48,0 КГц [Оригинал]
Раздача: Изображение

Изображение

Изображение
MediaInfo

Общее
Уникальный идентификатор : 216528749383615287977799425595482179903 (0xA2E5EB93EC0FE851B03F70487C16093F)
Полное имя : C:\Users\Домашний\Desktop\Hostel III.2011.BDRip.1080p[nntt].mkv
Формат : Matroska
Размер файла : 5,98 Гбайт
Продолжительность : 1 ч. 27 м.
Общий поток : 9760 Кбит/сек
Название фильма : Хостел 3 / Hostel: Part III (2011) BDRip 1080p - firebit.org
Дата кодирования : UTC 2012-01-14 03:47:20
Программа кодирования : mkvmerge v2.3.0 ('Freak U') built on Sep 8 2008 18:32:16
Библиотека кодирования : libebml v0.7.7 + libmatroska v0.8.1

Видео
Идентификатор : 1
Формат : AVC
Формат/Информация : Advanced Video Codec
Профиль формата : High@L4.1
Параметр CABAC формата : Да
Параметр ReFrames формата : 4 кадры
Параметры GOP формата : M=1, N=32
Идентификатор кодека : V_MPEG4/ISO/AVC
Продолжительность : 1 ч. 27 м.
Битрейт : 9193 Кбит/сек
Ширина : 1920 пикс.
Высота : 1080 пикс.
Соотношение сторон : 16:9
Частота кадров : 23,976 кадр/сек
Цветовое пространство : YUV
Подвыборка цветности : 4:2:0
Битовая глубина : 8 бит
Тип развёртки : Прогрессивная
Бит/(Пиксели*Кадры) : 0.185
Размер потока : 5,51 Гбайт (92%)
Заголовок : http://firebit.org
Библиотека кодирования : x264 core 120 r2120 0c7dab9
Настройки программы : cabac=1 / ref=4 / deblock=1:-1:-1 / analyse=0x3:0x133 / me=umh / subme=7 / psy=1 / psy_rd=1.00:0.00 / mixed_ref=1 / me_range=16 / chroma_me=1 / trellis=1 / 8x8dct=1 / cqm=0 / deadzone=21,11 / fast_pskip=1 / chroma_qp_offset=-2 / threads=12 / sliced_threads=0 / nr=0 / decimate=1 / interlaced=0 / bluray_compat=0 / constrained_intra=0 / bframes=3 / b_pyramid=2 / b_adapt=2 / b_bias=0 / direct=1 / weightb=1 / open_gop=0 / weightp=2 / keyint=250 / keyint_min=23 / scenecut=40 / intra_refresh=0 / rc_lookahead=40 / rc=2pass / mbtree=1 / bitrate=9193 / ratetol=1.0 / qcomp=0.60 / qpmin=0 / qpmax=69 / qpstep=4 / cplxblur=20.0 / qblur=0.5 / ip_ratio=1.40 / aq=1:1.00
Язык : English

Аудио #1
Идентификатор : 2
Формат : AC-3
Формат/Информация : Audio Coding 3
Расширение режима : CM (complete main)
Идентификатор кодека : A_AC3
Продолжительность : 1 ч. 27 м.
Вид битрейта : Постоянный
Битрейт : 384 Кбит/сек
Канал(ы) : 6 канала(ов)
Расположение каналов : Front: L C R, Side: L R, LFE
Частота : 48,0 КГц
Битовая глубина : 16 бит
Метод сжатия : С потерями
Размер потока : 241 Мбайт (4%)
Заголовок : http://firebit.org
Язык : Russian

Аудио #2
Идентификатор : 3
Формат : AC-3
Формат/Информация : Audio Coding 3
Расширение режима : CM (complete main)
Идентификатор кодека : A_AC3
Продолжительность : 1 ч. 27 м.
Вид битрейта : Постоянный
Битрейт : 192 Кбит/сек
Канал(ы) : 2 канала(ов)
Расположение каналов : Front: L R
Частота : 48,0 КГц
Битовая глубина : 16 бит
Метод сжатия : С потерями
Размер потока : 121 Мбайт (2%)
Заголовок : http://firebit.org
Язык : English

Текст #1
Идентификатор : 4
Формат : UTF-8
Идентификатор кодека : S_TEXT/UTF8
Идентификатор кодека/Информация : UTF-8 Plain Text
Заголовок : http://firebit.org
Язык : English

Текст #2
Идентификатор : 5
Формат : UTF-8
Идентификатор кодека : S_TEXT/UTF8
Идентификатор кодека/Информация : UTF-8 Plain Text
Заголовок : http://firebit.org
Язык : English


Свернуть
Скриншоты

Изображение
Изображение
Изображение
Изображение
Изображение
Свернуть
_________________
Изображение
Изображение
Не в сети
Профиль  
 Добавлено: 2012-01-18 07:35 (спустя 3 дня)
Аватара пользователя
Стаж: 8 лет 10 месяцев
Возраст: 27
Сообщений: 721
Спасибок: 5528
Лайков: 1
ниче че так)) 3я часть не подкочала. думал будет хуже :)
_________________
Изображение
Не в сети
Профиль  
 Добавлено: 2012-01-18 19:47 (спустя 12 часов)
Аватара пользователя
Стаж: 5 лет 10 месяцев
Сообщений: 77
Лайков: 2
Спс автору!!!
_________________
GVM
Не в сети
Профиль  
Начать новую темуОтветить на тему  [ Сообщений: 3 ] 
Вы не можете начинать темы
Вы не можете отвечать на сообщения
Вы не можете редактировать свои сообщения
Вы не можете удалять свои сообщения