Правила форума

  • В этом разделе создание новых тем Запрещено.
  • Для создания новых тем пользуйтесь Корневым разделом DVD и HD фильмы.
Начать новую темуОтветить на тему  [ Сообщений: 3 ] 
Торрент файл
Размер: 8.36 GB • Зарегистрирован: 2 года 1 месяц • Статус: Проверено
Скачан: 94 раза • Желающих скачать: 0 • Поблагодарили: 33 раза
 Раздают: 0  |  0 KB/s  ]   Качают: 0  |  0 KB/s  ] 
 Полного источника не было 3 часа 
Сообщения
 Добавлено: 2014-10-12 18:05
Аватара пользователя
Стаж: 9 лет 1 месяц
Сообщений: 7969
Спасибок: 122181
Лайков: 1191
Хоть раз в жизни / Begin again

«Поверь. Решись. Рискни»

Изображение


Год выпуска: 2013
Страна: Изображение США
Жанр: драма, мелодрама, комедия, музыка
Продолжительность: 01:44:25
Субтитры: Английские, испанские
Перевод: Профессиональный (полное дублирование) [Лицензия]


Режиссер: Джон Карни
Сценарий: Джон Карни
Продюсер: Тобин Армруст, Энтони Брегман, Джудд Апатоу
Оператор: Ярон Орбах

В ролях: Кира Найтли, Марк Руффало, Хейли Стайнфелд, Адам Левин, Джеймс Корден, Мос Деф, Си-Ло, Кэтрин Кинер, Карен Питтман, Пол Ромеро

Описание: Они живут в сердце музыкального мира, в Нью-Йорке. Дэн — легенда шоу-бизнеса и бывший глава музыкального лейбла. Грета — музыкант и бывшая девушка рок-звезды. Но люди бывшими и оказываются для того, чтобы начать все сначала.

Случайная встреча с Гретой дает Дэну новый шанс. Они решают вместе записать альбом. У них нет ни денег, ни профессиональных музыкантов, но все это не важно, потому что Грета и Дэн готовы к самым неожиданным поворотам и в музыке, и в любви. Их студией становится весь Нью-Йорк.


Изображение Изображение

Раздача группы: Изображение

Качество: BDRip (1080p)
Формат: Matroska
Видео: MPEG-4 AVC, 9357 Кбит/с, 1920x1036
Аудио №1: Русский (AC3, 48,0 КГц, 6 ch, 448 Кбит/c)
Аудио №2: Английский (DTS, 48,0 КГц, 6 ch, 1510 Кбит/c)
MediaInfo
Общее
Уникальный идентификатор : 196285869144987948272555188231854071688 (0x93AB4886A72690CBB0FA055B1CE39F88)
Полное имя : C:\Фильмы\Хоть.раз.в.жизни-Begin.Again.(2013).BDRip.[1080p].mkv
Формат : Matroska
Версия формата : Version 2
Размер файла : 8,36 Гбайт
Продолжительность : 1 ч. 44 м.
Общий поток : 11,5 Мбит/сек
Название фильма : Begin Again (2013)
Дата кодирования : UTC 2014-10-08 20:38:43
Программа кодирования : mkvmerge v5.7.0 ('The Whirlwind') built on Aug 7 2012 14:11:40
Библиотека кодирования : libebml v1.2.3 + libmatroska v1.3.0
Attachment : Yes

Видео
Идентификатор : 1
Формат : AVC
Формат/Информация : Advanced Video Codec
Профиль формата : High@L4.1
Параметр CABAC формата : Да
Параметр ReFrames формата : 4 кадра
Идентификатор кодека : V_MPEG4/ISO/AVC
Продолжительность : 1 ч. 44 м.
Битрейт : 9275 Кбит/сек
Ширина : 1920 пикселей
Высота : 1036 пикселей
Соотношение сторон : 1,85:1
Режим частоты кадров : Постоянный
Частота кадров : 23,976 кадра/сек
Цветовое пространство : YUV
Субдискретизация насыщенности : 4:2:0
Битовая глубина : 8 бит
Тип развёртки : Прогрессивная
Бит/(Пиксели*Кадры) : 0.194
Размер потока : 6,76 Гбайт (81%)
Заголовок : Хоть.раз.в.жизни-Begin.Again.(2013).BDRip.[1080p]
Библиотека кодирования : x264 core 142 r2479kMod dd79a61
Настройки программы : cabac=1 / ref=4 / deblock=1:-3:-3 / analyse=0x3:0x133 / me=umh / subme=10 / psy=1 / fade_compensate=0.00 / psy_rd=1.05:0.00 / mixed_ref=1 / me_range=24 / chroma_me=1 / trellis=2 / 8x8dct=1 / cqm=0 / deadzone=21,11 / fast_pskip=0 / chroma_qp_offset=-2 / threads=18 / lookahead_threads=3 / sliced_threads=0 / nr=0 / decimate=1 / interlaced=0 / bluray_compat=0 / constrained_intra=0 / fgo=0 / bframes=9 / b_pyramid=2 / b_adapt=2 / b_bias=0 / direct=3 / weightb=1 / open_gop=0 / weightp=2 / keyint=230 / keyint_min=23 / scenecut=40 / intra_refresh=0 / rc_lookahead=40 / rc=crf / mbtree=0 / crf=18.0000 / qcomp=0.65 / qpmin=0 / qpmax=69 / qpstep=4 / vbv_maxrate=50000 / vbv_bufsize=62500 / crf_max=0.0 / nal_hrd=none / filler=0 / ip_ratio=1.25 / pb_ratio=1.15 / aq=1:0.80
Язык : English
Default : Да
Forced : Нет
Коэффициенты матрицы : BT.709

Аудио #1
Идентификатор : 2
Формат : AC-3
Формат/Информация : Audio Coding 3
Расширение режима : CM (complete main)
Параметр Endianness формата : Big
Идентификатор кодека : A_AC3
Продолжительность : 1 ч. 44 м.
Вид битрейта : Постоянный
Битрейт : 448 Кбит/сек
Каналы : 6 каналов
Расположение каналов : Front: L C R, Side: L R, LFE
Частота : 48,0 КГц
Битовая глубина : 16 бит
Метод сжатия : С потерями
Размер потока : 335 Мбайт (4%)
Заголовок : AC3 5.1 / 448 Kbps / Dub
Язык : Russian
Default : Да
Forced : Нет

Аудио #2
Идентификатор : 3
Формат : DTS
Формат/Информация : Digital Theater Systems
Режим : 16
Параметр Endianness формата : Big
Идентификатор кодека : A_DTS
Продолжительность : 1 ч. 44 м.
Вид битрейта : Постоянный
Битрейт : 1509 Кбит/сек
Каналы : 6 каналов
Расположение каналов : Front: L C R, Side: L R, LFE
Частота : 48,0 КГц
Битовая глубина : 24 бит
Метод сжатия : С потерями
Размер потока : 1,10 Гбайт (13%)
Заголовок : DTS 5.1 / 1536 Kbps / Original
Язык : English
Default : Нет
Forced : Нет

Текст #1
Идентификатор : 4
Формат : UTF-8
Идентификатор кодека : S_TEXT/UTF8
Идентификатор кодека/Информация : UTF-8 Plain Text
Заголовок : Full
Язык : English
Default : Нет
Forced : Нет

Текст #2
Идентификатор : 5
Формат : UTF-8
Идентификатор кодека : S_TEXT/UTF8
Идентификатор кодека/Информация : UTF-8 Plain Text
Заголовок : SDH
Язык : English
Default : Нет
Forced : Нет

Меню
00:00:00.000 : en:00:00:00.000
00:04:00.866 : en:00:04:00.866
00:11:39.157 : en:00:11:39.157
00:17:19.914 : en:00:17:19.914
00:22:33.352 : en:00:22:33.352
00:27:30.983 : en:00:27:30.983
00:34:24.729 : en:00:34:24.729
00:39:14.936 : en:00:39:14.936
00:44:15.069 : en:00:44:15.069
00:51:18.617 : en:00:51:18.617
00:57:15.140 : en:00:57:15.140
01:03:49.784 : en:01:03:49.784
01:10:07.537 : en:01:10:07.537
01:15:21.350 : en:01:15:21.350
01:24:42.160 : en:01:24:42.160
01:30:53.573 : en:01:30:53.573
01:35:59.462 : en:01:35:59.462
01:41:24.829 : en:01:41:24.829
Свернуть
Знаете ли вы, что...
Скарлетт Йоханссон могла сыграть главную роль, но в итоге покинула проект.

На 25:58 рядом с Гретой проходит девушка, а в следующем кадре она исчезает.

Когда главные герои сидят в закрытом кафе (перед небольшой ссорой) на заднем плане за Марком Руффало можно заметить седовласую читающую женщину за столиком — это мама Киры Найтли.

Свернуть
Скриншоты
Изображение
Изображение
Изображение
Изображение
Свернуть
Не в сети
Профиль  
 Добавлено: 2014-11-03 12:21 (спустя 21 день)
Аватара пользователя
Стаж: 6 лет 1 месяц
Сообщений: 16
Как фильмец? :-[
Не в сети
Профиль  
 Добавлено: 2016-07-24 20:10 (спустя 1 год 8 месяцев)
Аватара пользователя
Стаж: 8 лет 11 месяцев
Сообщений: 4
Легкий и ооочень добрый
Не в сети
Профиль  
Начать новую темуОтветить на тему  [ Сообщений: 3 ] 
Вы не можете начинать темы
Вы не можете отвечать на сообщения
Вы не можете редактировать свои сообщения
Вы не можете удалять свои сообщения