Правила форума

  • В этом разделе создание новых тем Запрещено.
  • Для создания новых тем пользуйтесь Корневым разделом DVD и HD фильмы.
Начать новую темуОтветить на тему  [ Сообщений: 7 ] 
Торрент файл
Размер: 5.37 GB • Зарегистрирован: 5 лет 3 месяца • Статус: Проверено
Скачан: 230 раз • Желающих скачать: 0 • Поблагодарили: 49 раз
 Раздают: 0  |  0 KB/s  ]   Качают: 0  |  0 KB/s  ] 
 Полного источника не было 1 год 7 месяцев 
Сообщения
 Добавлено: 2011-09-02 23:22
Руководитель релиз-группы
Аватара пользователя
Стаж: 9 лет 1 месяц
Возраст: 28
Сообщений: 4244
Спасибок: 32001
Лайков: 32
Изображение

Храбрые перцем
Your Highness


«Приключение для тех, кому жмут гульфики.»

Год выпуска: 2011
Страна: Изображение США
Жанр: комедия, приключения
Продолжительность: 01:42:27
Перевод: Дубляж + Оригинал + Субтитры (русские - форсированные; украинские; английские)

Режиссер: Дэвид Гордон Грин

В ролях: Дэнни МакБрайд, Джеймс Франко, Расмус Хардайкер, Натали Портман, Тоби Джонс, Джастин Теру, Зои Дешанель, Чарльз Дэнс, Дамиан Льюис, Саймон Фарнэби

Описание: Ленивый принц Тадеуш свыкся развлекаться и бегать за служанками, пока его старший брат Фабио подсоблял отцу вести дела королевства. Но после того, как лютый колдун украл нареченную Фабио, Беладонну, Тадеушу довелось примкнуть к отряду, который обязан вызволить принцессу. Впереди — странствование через неистовые земли, встречи с чудовищами и девицей - воительницей Изабеллой, у которой свои счеты с колдуном.

Раздача: Изображение

kinopoisk.ru: 6.140 (6 085)

Доп. информация
Бюджет: $49 900 000
Сборы в мире: $24 856 478
Сборы в США: $21 596 445
Мировая премьера: 8 апреля 2011
Рейтинг R — Restricted. Подростки до 17 лет допускаются на фильм только в сопровождении одного из родителей
Изображение
Ограничение — до 17 лет требуется сопровождение родителя или взрослого опекуна (возраст может меняться в некоторых регионах). Данный рейтинг показывает, что оценочная комиссия заключила, что некоторый материал оценённого фильма предназначается для взрослых. Родители должны больше узнать о фильме прежде, чем взять на его просмотр детей. Рейтинг R также может быть назначен из-за используемого в фильме языка, темы, насилия, секса или изображения употребления наркотиков.
Свернуть
Свернуть

Качество: BDRip 720p
Формат: Matroska
Видео: 1280x534, 23.976 fps, x.264 ~ 5612 kbps avg, 0.342 bit/pixel
Аудио #1: 48 kHz, AC3, 6 ch, 384 kbps [DUB]
Аудио #2: 48 kHz, DTS, 6 ch, 1510 kbps [ENG]

MediaInfo
General
Unique ID : 184903466452999775550164572207995335836 (0x8B1B1CBECB3A8EC5A9FDEC931BAEB49C)
Complete name : J:\Your.Highness.2011.BDRip.720p[R.G.KiNOvNiNO].mkv
Format : Matroska
File size : 5.37 GiB
Duration : 1h 42mn
Overall bit rate : 7 502 Kbps
Encoded date : UTC 2011-09-03 01:10:51
Writing application : mkvmerge v4.9.1 ('Ich will') сборка от Jul 11 2011 23:53:15
Writing library : libebml v1.2.1 + libmatroska v1.1.1

Video
ID : 1
Format : AVC
Format/Info : Advanced Video Codec
Format profile : High@L4.1
Format settings, CABAC : Yes
Format settings, ReFrames : 9 frames
Codec ID : V_MPEG4/ISO/AVC
Duration : 1h 42mn
Bit rate : 5 612 Kbps
Width : 1 280 pixels
Height : 534 pixels
Display aspect ratio : 2.35:1
Frame rate : 23.976 fps
Color space : YUV
Chroma subsampling : 4:2:0
Bit depth : 8 bits
Scan type : Progressive
Bits/(Pixel*Frame) : 0.342
Stream size : 3.91 GiB (73%)
Title : Your Highness
Writing library : x264 core 115 r1995 c1e60b9
Encoding settings : cabac=1 / ref=9 / deblock=1:-1:-1 / analyse=0x3:0x113 / me=umh / subme=10 / psy=1 / psy_rd=1.00:0.15 / mixed_ref=1 / me_range=32 / chroma_me=1 / trellis=2 / 8x8dct=1 / cqm=0 / deadzone=21,11 / fast_pskip=0 / chroma_qp_offset=-3 / threads=2 / sliced_threads=0 / nr=0 / decimate=1 / interlaced=0 / bluray_compat=0 / constrained_intra=0 / bframes=9 / b_pyramid=2 / b_adapt=2 / b_bias=0 / direct=3 / weightb=1 / open_gop=0 / weightp=2 / keyint=250 / keyint_min=23 / scenecut=40 / intra_refresh=0 / rc_lookahead=40 / rc=2pass / mbtree=1 / bitrate=5612 / ratetol=1.0 / qcomp=0.70 / qpmin=10 / qpmax=51 / qpstep=4 / cplxblur=20.0 / qblur=0.5 / ip_ratio=1.40 / aq=2:1.00
Language : English

Audio #1
ID : 2
Format : AC-3
Format/Info : Audio Coding 3
Mode extension : CM (complete main)
Codec ID : A_AC3
Duration : 1h 42mn
Bit rate mode : Constant
Bit rate : 384 Kbps
Channel(s) : 6 channels
Channel positions : Front: L C R, Side: L R, LFE
Sampling rate : 48.0 KHz
Bit depth : 16 bits
Compression mode : Lossy
Stream size : 281 MiB (5%)
Title : Dub
Language : Russian

Audio #2
ID : 3
Format : DTS
Format/Info : Digital Theater Systems
Codec ID : A_DTS
Duration : 1h 42mn
Bit rate mode : Constant
Bit rate : 1 510 Kbps
Channel(s) : 6 channels
Channel positions : Front: L C R, Side: L R, LFE
Sampling rate : 48.0 KHz
Bit depth : 24 bits
Compression mode : Lossy
Stream size : 1.08 GiB (20%)
Title : Original
Language : English

Text #1
ID : 4
Format : UTF-8
Codec ID : S_TEXT/UTF8
Codec ID/Info : UTF-8 Plain Text
Title : Forced
Language : Russian

Text #2
ID : 5
Format : UTF-8
Codec ID : S_TEXT/UTF8
Codec ID/Info : UTF-8 Plain Text
Title : Full
Language : Ukrainian

Text #3
ID : 6
Format : UTF-8
Codec ID : S_TEXT/UTF8
Codec ID/Info : UTF-8 Plain Text
Title : Full
Language : English

Menu
00:00:00.000 : en:00:00:00.000
00:04:58.298 : en:00:04:58.298
00:10:47.313 : en:00:10:47.313
00:14:48.805 : en:00:14:48.805
00:19:40.554 : en:00:19:40.554
00:24:11.742 : en:00:24:11.742
00:29:45.200 : en:00:29:45.200
00:33:37.390 : en:00:33:37.390
00:37:39.799 : en:00:37:39.799
00:43:47.792 : en:00:43:47.792
00:48:28.864 : en:00:48:28.864
00:52:42.743 : en:00:52:42.743
00:58:47.107 : en:00:58:47.107
01:02:45.637 : en:01:02:45.637
01:08:00.576 : en:01:08:00.576
01:12:01.359 : en:01:12:01.359
01:19:50.202 : en:01:19:50.202
01:28:36.853 : en:01:28:36.853
01:33:57.507 : en:01:33:57.507
01:37:39.353 : en:01:37:39.353
Свернуть

Скриншоты

Изображение

Изображение

Изображение

Свернуть
_________________
«you failed because you had the wrong dream...»
Не в сети
Профиль  
 Добавлено: 2011-09-03 00:39 (спустя 1 час 17 минут)
Top-releaser
Аватара пользователя
Стаж: 8 лет 7 месяцев
Сообщений: 1286
Спасибок: 3421
Лайков: 7
Опять опоздал, что тебя :ni_zia: помогу раздать :par_don:
Не в сети
Профиль  
 Добавлено: 2011-09-03 12:26 (спустя 11 часов)
Руководитель релиз-группы
Аватара пользователя
Стаж: 9 лет 1 месяц
Возраст: 28
Сообщений: 4244
Спасибок: 32001
Лайков: 32
Рип заменен. Предыдущий, он же раздающийся на ганге (720p), имел артефакты видео в некоторых сценах фильма.
_________________
«you failed because you had the wrong dream...»
Не в сети
Профиль  
 Добавлено: 2011-12-15 21:54 (спустя 3 месяца 12 дней)
Аватара пользователя
Стаж: 7 лет 5 месяцев
Возраст: 29
Сообщений: 118
Спасибок: 3
Лайков: 2
Под пивко с друзьями поугарать :-D :-D :-D
Не в сети
Профиль  
 Добавлено: 2013-03-23 16:49 (спустя 1 год 3 месяца)
Стаж: 8 лет 3 месяца
Сообщений: 41
дайте скорости плззз!
Не в сети
Профиль  
 Добавлено: 2013-03-26 21:23 (спустя 3 дня)
Аватара пользователя
Стаж: 6 лет 9 месяцев
Сообщений: 922
сквозь весь просмотр этого фильма меня не отпускало впечатление что режиссер поклонник уве бола...
Не в сети
Профиль  
 Добавлено: 2013-04-20 17:37 (спустя 24 дня)
Стаж: 7 лет 4 месяца
Сообщений: 165
Лайков: 6
Смешной фильмец))
Не в сети
Профиль  
Начать новую темуОтветить на тему  [ Сообщений: 7 ] 
Вы не можете начинать темы
Вы не можете отвечать на сообщения
Вы не можете редактировать свои сообщения
Вы не можете удалять свои сообщения