Правила форума

  • В этом разделе создание новых тем Запрещено.
  • Для создания новых тем пользуйтесь Корневым разделом DVD и HD фильмы.
Начать новую темуОтветить на тему  [ 1 сообщение ] 
Торрент файл
Размер: 12.58 GB • Зарегистрирован: 4 года 6 месяцев • Статус: Проверено
Скачан: 190 раз • Желающих скачать: 0 • Поблагодарили: 36 раз
 Раздают: 0  |  0 KB/s  ]   Качают: 0  |  0 KB/s  ] 
 Полного источника не было 1 год 2 месяца 
Сообщения
 Добавлено: 2012-06-02 22:43
Модератор
Аватара пользователя
Стаж: 6 лет 10 месяцев
Возраст: 33
Сообщений: 5908
Спасибок: 61239
Лайков: 3540
Изображение

Хроника / Chronicle

(Режиссерская версия / Director's Cut)


Год выпуска: 2012
Страна: США, ЮАР
Слоган: «На что способен ты?»
Жанр: фантастика, боевик, триллер, драма
Продолжительность: 01:29:36
Перевод: Профессиональный (полное дублирование) {EUR BD}
Режиссер: Джошуа Транк
Сценарий: Макс Лэндис, Джошуа Транк
Продюсер: Джон Дэвис, Адам Шредер, Грег Бакл
Оператор: Мэттью Дженсен
В ролях: Дэйн ДеХаан, Алекс Расселл, Майкл Б. Джордан, Майкл Келли, Эшли Хиншоу, Бо Петерсен, Анна Вуд, Руди Малкольм, Люк Тайлер, Кристал-Донна Робертс
Бюджет: $12 000 000
Сборы в США: $64 568 512
Сборы в России: $3 948 604
Сборы в мире: $125 176 837
Описание: Три школьника получают супер способности после обнаружения упавшего метеорита. Скоро они попадут в водоворот событий, в котором откроются их темные стороны.
Изображение
MPAA: Изображение
Мировая премьера: 28 января 2012
Релиз на DVD: 7 июня 2012, «Двадцатый Век Фокс СНГ»
Релиз на Blu-ray: 7 июня 2012, «Двадцатый Век Фокс СНГ»
Раздача группы: Изображение
Качество: BDRip, 1080p
Формат: Matroska
Видео: AVC; 1920x1040 (16:9); 17430 Kbps
Аудио №1: Russian; DTS; 754 Kbps; CBR; 6 ch; 24 bit
Аудио №2: English; DTS; 1509 Kbps; CBR; 6 ch; 24 bit

Субтитры №1: Russian
Субтитры №2: Russian
Субтитры №3: English


MediaInfo
General
Unique ID : 210870907021422415217608297157685819509 (0x9EA442699028BCE98647CDDAB8E23875)
Complete name : Хроника__Chronicle [2012.BDRip.1080p.Dub.Eng.Subs]-HQFans.mkv
Format : Matroska
Format version : Version 2
File size : 12.6 GiB
Duration : 1h 29mn
Overall bit rate : 20.1 Mbps
Movie name : HQFans
Encoded date : UTC 2012-06-02 06:22:44
Writing application : mkvmerge v5.6.0 ('Kenya Kane') built on May 27 2012 16:44:04
Writing library : libebml v1.2.3 + libmatroska v1.3.0

Video
ID : 1
Format : AVC
Format/Info : Advanced Video Codec
Format profile : High@L4.1
Format settings, CABAC : Yes
Format settings, ReFrames : 4 frames
Codec ID : V_MPEG4/ISO/AVC
Duration : 1h 29mn
Bit rate : 17.4 Mbps
Width : 1 920 pixels
Height : 1 040 pixels
Display aspect ratio : 1.85:1
Frame rate : 23.976 fps
Color space : YUV
Chroma subsampling : 4:2:0
Bit depth : 8 bits
Scan type : Progressive
Bits/(Pixel*Frame) : 0.364
Stream size : 10.9 GiB (87%)
Title : Хроника [2012, BDRip/1080p] || ZUNE@HQFans
Writing library : x264 core 125 r2200 999b753
Encoding settings : cabac=1 / ref=4 / deblock=1:-3:-3 / analyse=0x3:0x113 / me=umh / subme=11 / psy=1 / psy_rd=1.00:0.00 / mixed_ref=1 / me_range=48 / chroma_me=1 / trellis=2 / 8x8dct=1 / cqm=0 / deadzone=21,11 / fast_pskip=1 / chroma_qp_offset=-2 / threads=12 / lookahead_threads=2 / sliced_threads=0 / nr=0 / decimate=1 / interlaced=0 / bluray_compat=0 / constrained_intra=0 / bframes=8 / b_pyramid=2 / b_adapt=2 / b_bias=0 / direct=3 / weightb=1 / open_gop=0 / weightp=2 / keyint=240 / keyint_min=24 / scenecut=40 / intra_refresh=0 / rc_lookahead=40 / rc=crf / mbtree=0 / crf=17.6 / qcomp=0.65 / qpmin=0 / qpmax=69 / qpstep=4 / vbv_maxrate=50000 / vbv_bufsize=50000 / crf_max=0.0 / nal_hrd=none / ip_ratio=1.40 / pb_ratio=1.30 / aq=1:0.80
Language : English
Default : Yes
Forced : No
Color primaries : BT.709-5, BT.1361, IEC 61966-2-4, SMPTE RP177
Transfer characteristics : BT.709-5, BT.1361
Matrix coefficients : BT.709-5, BT.1361, IEC 61966-2-4 709, SMPTE RP177

Audio #1
ID : 2
Format : DTS
Format/Info : Digital Theater Systems
Codec ID : A_DTS
Duration : 1h 29mn
Bit rate mode : Constant
Bit rate : 755 Kbps
Channel(s) : 6 channels
Channel positions : Front: L C R, Side: L R, LFE
Sampling rate : 48.0 KHz
Bit depth : 24 bits
Compression mode : Lossy
Stream size : 484 MiB (4%)
Title : Dub {EUR BD} [DTS 5.1@768kbps/24-bit]
Language : Russian
Default : Yes
Forced : No

Audio #2
ID : 3
Format : DTS
Format/Info : Digital Theater Systems
Codec ID : A_DTS
Duration : 1h 29mn
Bit rate mode : Constant
Bit rate : 1 510 Kbps
Channel(s) : 6 channels
Channel positions : Front: L C R, Side: L R, LFE
Sampling rate : 48.0 KHz
Bit depth : 24 bits
Compression mode : Lossy
Stream size : 968 MiB (8%)
Title : Original [DTS 5.1@1536kbps/24-bit]
Language : English
Default : No
Forced : No

Text #1
ID : 4
Format : UTF-8
Codec ID : S_TEXT/UTF8
Codec ID/Info : UTF-8 Plain Text
Title : Forced
Language : Russian
Default : Yes
Forced : No

Text #2
ID : 5
Format : UTF-8
Codec ID : S_TEXT/UTF8
Codec ID/Info : UTF-8 Plain Text
Title : Full
Language : Russian
Default : No
Forced : No

Text #3
ID : 6
Format : UTF-8
Codec ID : S_TEXT/UTF8
Codec ID/Info : UTF-8 Plain Text
Title : Full
Language : English
Default : No
Forced : No

Menu
00:00:00.000 : en:Chapter 1
00:03:35.215 : en:Chapter 2
00:07:07.427 : en:Chapter 3
00:11:19.637 : en:Chapter 4
00:14:19.233 : en:Chapter 5
00:19:52.233 : en:Chapter 6
00:23:12.558 : en:Chapter 7
00:26:43.101 : en:Chapter 8
00:28:08.353 : en:Chapter 9
00:31:53.537 : en:Chapter 10
00:36:42.158 : en:Chapter 11
00:38:31.893 : en:Chapter 12
00:41:48.589 : en:Chapter 13
00:45:06.621 : en:Chapter 14
00:48:58.185 : en:Chapter 15
00:53:20.114 : en:Chapter 16
00:56:37.311 : en:Chapter 17
01:01:22.345 : en:Chapter 18
01:04:48.676 : en:Chapter 19
01:08:09.710 : en:Chapter 20
01:10:40.611 : en:Chapter 21
01:14:09.069 : en:Chapter 22
01:21:12.951 : en:Chapter 23
01:23:55.280 : en:Chapter 24
Свернуть


Скриншоты

Изображение
Изображение
Изображение
Свернуть
_________________
ИзображениеИзображение Изображение
Изображение
 tany1984 и di-ys1 нравится это.
Не в сети
Профиль  
Начать новую темуОтветить на тему  [ 1 сообщение ] 
Вы не можете начинать темы
Вы не можете отвечать на сообщения
Вы не можете редактировать свои сообщения
Вы не можете удалять свои сообщения