Правила форума

  • В этом разделе создание новых тем Запрещено.
  • Для создания новых тем пользуйтесь Корневым разделом DVD и HD фильмы.
Начать новую темуОтветить на тему  [ Сообщений: 2 ] 
Торрент файл
Размер: 4.38 GB • Зарегистрирован: 4 года 3 месяца • Статус: Проверено
Скачан: 27 раз • Желающих скачать: 0 • Поблагодарили: 7 раз
 Раздают: 0  |  0 KB/s  ]   Качают: 0  |  0 KB/s  ] 
 Полного источника не было 1 год 11 месяцев 
Сообщения
 Добавлено: 2012-08-12 22:54
Книголюб
Аватара пользователя
Стаж: 7 лет 2 месяца
Сообщений: 2823
Спасибок: 48826
Лайков: 73
Хроники мутантов
Mutant Chronicles

Изображение


Год выпуска: 2008
Страна: США, Великобритания
Слоган: «23-й век. Последняя битва.»
Жанр: ужасы, фантастика, боевик, приключения
Продолжительность: 01:51:31
Перевод: Профессиональный (дубляж)

Режиссёр: Саймон Хантер
В ролях: Томас Джейн, Том Ву, Джон Малкович, Стив Туссэн, Анна Уолтон, Девон Аоки, Луис Мигель Эхегарай, Шон Пертуи, Рон Перлман, Бенно Фюрманн
Описание: На исходе Ледниковой эпохи появилась Машина. Она прилетела извне с единственной целью — превратить человека в мутанта…

2707 год. В результате войны между корпорациями печати древних, установленные на Машине, которая погребена глубоко под землей, сорваны. Машина начинает работать. Полчища мутантов атакуют человечество. Корпорации объединяются против новой угрозы, но силы не равны. Счастливчикам удается эвакуироваться в колониальные миры. Остальные обречены на вымирание. И только небольшой отряд самых отважных воинов под командованием майор Митча Хантера отправляется вглубь подземелий, чтобы установить древний механизм, который разрушит Машину. Это единственная надежда человечества на выживание…
Рейтинг MPAA: Рейтинг R (Подростки до 17 лет допускаются на фильм только в сопровождении одного из родителей)
Мировая премьера: 13 августа 2008
Премьера в России: 7 августа 2008, «West»
Изображение 4.342 3 867

Качество: HQRip 1080p.
Формат: MKV
Видео кодек: H.264
Аудио кодек: AC3 (Dolby Digital)
Видео: 1920x1032 (1,860), 23.976 fps, 5168 kbps 0.109Bits/Pixel
Аудио #1: 48 kHz, 6 ch, 448 kbps
MediaInfo
General
Unique ID : 248643799851672539459196205600843092874 (0xBB0F0DD07512E7258B120DA6C85DD38A)
Complete name : K:\Torrent\Mutant.Chronicles..mkv
Format : Matroska
Format version : Version 2
File size : 4.38 GiB
Duration : 1h 51mn
Overall bit rate : 5 617 Kbps
Encoded date : UTC 2010-12-26 12:00:00
Writing application : mkvmerge v4.0.0 ('The Stars were mine') сборка от Jun 6 2010 16:18:42
Writing library : libebml v1.0.0 + libmatroska v1.0.0

Video
ID : 1
Format : AVC
Format/Info : Advanced Video Codec
Format profile : High@L4.1
Format settings, CABAC : Yes
Format settings, ReFrames : 3 frames
Codec ID : V_MPEG4/ISO/AVC
Duration : 1h 51mn
Bit rate : 5 168 Kbps
Width : 1 920 pixels
Height : 1 032 pixels
Display aspect ratio : 1.860
Frame rate : 23.976 fps
Color space : YUV
Chroma subsampling : 4:2:0
Bit depth : 8 bits
Scan type : Progressive
Bits/(Pixel*Frame) : 0.109
Stream size : 3.94 GiB (90%)
Writing library : x264 core 112 r1834 a51816a
Encoding settings : cabac=1 / ref=4 / deblock=1:-1:-1 / analyse=0x3:0x133 / me=umh / subme=9 / psy=1 / psy_rd=1.00:0.00 / mixed_ref=1 / me_range=24 / chroma_me=1 / trellis=1 / 8x8dct=1 / cqm=0 / deadzone=21,11 / fast_pskip=0 / chroma_qp_offset=-2 / threads=12 / sliced_threads=0 / nr=0 / decimate=0 / interlaced=0 / constrained_intra=0 / bframes=4 / b_pyramid=1 / b_adapt=2 / b_bias=0 / direct=3 / weightb=1 / open_gop=0 / weightp=2 / keyint=250 / keyint_min=23 / scenecut=40 / intra_refresh=0 / rc_lookahead=60 / rc=2pass / mbtree=1 / bitrate=5168 / ratetol=1.0 / qcomp=0.70 / qpmin=0 / qpmax=51 / qpstep=4 / cplxblur=20.0 / qblur=0.5 / ip_ratio=1.40 / aq=1:1.00
Language : English
Default : Yes
Forced : No

Audio
ID : 2
Format : AC-3
Format/Info : Audio Coding 3
Mode extension : CM (complete main)
Codec ID : A_AC3
Duration : 1h 51mn
Bit rate mode : Constant
Bit rate : 448 Kbps
Channel(s) : 6 channels
Channel positions : Front: L C R, Side: L R, LFE
Sampling rate : 48.0 KHz
Bit depth : 16 bits
Compression mode : Lossy
Stream size : 357 MiB (8%)
Language : Russian
Default : Yes
Forced : No


Свернуть

Скриншоты
Изображение
Изображение
Изображение
Свернуть
Не в сети
Профиль  
 Добавлено: 2012-08-13 07:31 (спустя 8 часов)
Руководитель релиз-группы
Аватара пользователя
Стаж: 7 лет 5 месяцев
Возраст: 31
Сообщений: 3407
Спасибок: 46729
Лайков: 5
• Зарегистрирован: 8 часов •
Полного источника не было никогда
???
Не в сети
Профиль  
Начать новую темуОтветить на тему  [ Сообщений: 2 ] 
Вы не можете начинать темы
Вы не можете отвечать на сообщения
Вы не можете редактировать свои сообщения
Вы не можете удалять свои сообщения