Правила форума

  • В этом разделе создание новых тем Запрещено.
  • Для создания новых тем пользуйтесь Корневым разделом DVD и HD фильмы.
Начать новую темуОтветить на тему  [ 1 сообщение ] 
Торрент файл
Размер: 7.92 GB • Зарегистрирован: 5 лет 4 месяца • Статус: Проверено
Скачан: 78 раз • Желающих скачать: 0 • Поблагодарили: 23 раза
 Раздают: 0  |  0 KB/s  ]   Качают: 0  |  0 KB/s  ] 
 Полного источника не было 8 месяцев 
Сообщения
 Добавлено: 2011-08-04 08:30
Top-releaser
Аватара пользователя
Стаж: 6 лет 7 месяцев
Сообщений: 2078
Спасибок: 3230
Лайков: 9
Хроники Нарнии: Лев, Колдунья и Волшебный шкаф / The Chronicles of Narnia: The Lion, the Witch and the Wardrobe

Изображение

Год выпуска: 2005
Страна: США
Жанр: Фэнтези
Продолжительность: 02:23:01
Перевод: Дублированный
Режиссёр: Эндрю Адамсон
В ролях: Джорджи Хенли, Анна Попплуэлл, Руперт Эверетт, Уильям Моусли, Скандар Кейнс, Джим Броудбент, Патрик Кейк, Джеймс МакЭвой, Тильда Суинтон
Описание: Четверых детей родители отправляют из Лондона в деревню, к старому профессору - другу семьи. В его доме дети обнаруживают таинственный платяной шкаф, посредством которого они попадают в сказочную страну Нарнию, где обитают фантастические люди, животные и существа. Оказывается, что эта мирная страна находится под властью злой Колдуньи, из-за которой там - вечная зима. Дети должны помочь царю Аслану (Великому Льву, который много столетий назад основал Нарнию) победить Колдунью, разрушить заклинания и освободить жителей Нарнии

Раздача группы: Изображение

Качество: BDRip
Формат: MKV
Видео кодек: H.264
Аудио кодек: AC3 (Dolby Digital)
Видео: MPEG-4 AVC, 1280x544, 5688 Кбит/с
Аудио #1: Русский (AC3, 6 ch, 384 Кбит/с)
Аудио #2: Английский (DTS, 6 ch, 1510 Кбит/с)
Аудио #3: Английский (AC3, 1 ch, 96 Кбит/с) - Комментарии 1
Аудио #4: Английский (AC3, 1 ch, 96 Кбит/с) - Комментарии 2
Субтитры: Русские, Английские

Скриншоты
Изображение

Изображение

Изображение

Изображение
Свернуть

MediaInfo
General
Unique ID : 211978247398752575793143095464996770577 (0x9F798682151166A589846EA3263E1311)
Complete name : L:\Хроники Нарнии Лев, колдунья и волшебный шкаф\Hroniki.Narnii.Lev.Koldunia.i.Volshebnyj.shkaf.720p.mkv
Format : Matroska
File size : 7.92 GiB
Duration : 2h 23mn
Overall bit rate : 7 932 Kbps
Movie name : ZACKARY
Encoded date : UTC 2008-05-16 20:24:58
Writing application : mkvmerge v2.1.0 ('Another Place To Fall') built on Aug 19 2007 13:40:07
Writing library : libebml v0.7.7 + libmatroska v0.8.1

Video
ID : 1
Format : AVC
Format/Info : Advanced Video Codec
Format profile : High@L4.1
Format settings, CABAC : Yes
Format settings, ReFrames : 3 frames
Codec ID : V_MPEG4/ISO/AVC
Duration : 2h 23mn
Bit rate : 5 848 Kbps
Width : 1 280 pixels
Height : 544 pixels
Display aspect ratio : 2.35:1
Frame rate : 23.976 fps
Color space : YUV
Chroma subsampling : 4:2:0
Bit depth : 8 bits
Scan type : Progressive
Bits/(Pixel*Frame) : 0.350
Stream size : 5.68 GiB (72%)
Title : The Chronicles Of Narnia: The Lion, The Witch And The Wardrobe 2005 Blu-ray 720p x264 - ZACKARY
Writing library : x264 core 59 r839M 27c3071
Encoding settings : cabac=1 / ref=3 / deblock=1:0:0 / analyse=0x1:0x111 / me=hex / subme=6 / me-prepass=0 / brdo=0 / mixed_ref=1 / me_range=16 / chroma_me=1 / trellis=1 / 8x8dct=0 / cqm=2 / deadzone=21,11 / chroma_qp_offset=0 / threads=3 / nr=0 / decimate=1 / mbaff=0 / fgo=0 / bframes=3 / b_pyramid=1 / b_adapt=1 / b_bias=0 / direct=1 / wpredb=1 / bime=1 / keyint=250 / keyint_min=25 / scenecut=40(pre) / rc=2pass / bitrate=5848 / ratetol=1.0 / rceq='blurCplx^(1-qComp)' / qcomp=1.00 / qpmin=10 / qpmax=51 / qpstep=4 / cplxblur=20.0 / qblur=0.5 / ip_ratio=1.40 / pb_ratio=1.30 / aq=2:1.00

Audio #1
ID : 2
Format : AC-3
Format/Info : Audio Coding 3
Mode extension : CM (complete main)
Codec ID : A_AC3
Duration : 2h 23mn
Bit rate mode : Constant
Bit rate : 384 Kbps
Channel(s) : 6 channels
Channel positions : Front: L C R, Side: L R, LFE
Sampling rate : 48.0 KHz
Bit depth : 16 bits
Compression mode : Lossy
Stream size : 393 MiB (5%)
Title : Дубляж AC3 6ch 384kbps
Language : Russian

Audio #2
ID : 3
Format : DTS
Format/Info : Digital Theater Systems
Codec ID : A_DTS
Duration : 2h 23mn
Bit rate mode : Constant
Bit rate : 1 510 Kbps
Channel(s) : 6 channels
Channel positions : Front: L C R, Side: L R, LFE
Sampling rate : 48.0 KHz
Bit depth : 24 bits
Compression mode : Lossy
Stream size : 1.51 GiB (19%)
Title : Оригинал DTS 6ch 1536kbps
Language : English

Audio #3
ID : 4
Format : AC-3
Format/Info : Audio Coding 3
Mode extension : CM (complete main)
Codec ID : A_AC3
Duration : 2h 23mn
Bit rate mode : Constant
Bit rate : 96.0 Kbps
Channel(s) : 1 channel
Channel positions : Front: C
Sampling rate : 48.0 KHz
Bit depth : 16 bits
Compression mode : Lossy
Stream size : 98.2 MiB (1%)
Title : Комментарии #1
Language : English

Audio #4
ID : 5
Format : AC-3
Format/Info : Audio Coding 3
Mode extension : CM (complete main)
Codec ID : A_AC3
Duration : 2h 23mn
Bit rate mode : Constant
Bit rate : 96.0 Kbps
Channel(s) : 1 channel
Channel positions : Front: C
Sampling rate : 48.0 KHz
Bit depth : 16 bits
Compression mode : Lossy
Stream size : 98.2 MiB (1%)
Title : Комментарии #2
Language : English

Text #1
ID : 6
Format : UTF-8
Codec ID : S_TEXT/UTF8
Codec ID/Info : UTF-8 Plain Text
Language : Russian

Text #2
ID : 7
Format : UTF-8
Codec ID : S_TEXT/UTF8
Codec ID/Info : UTF-8 Plain Text
Title : Комментарии #1
Language : Russian

Text #3
ID : 8
Format : UTF-8
Codec ID : S_TEXT/UTF8
Codec ID/Info : UTF-8 Plain Text
Title : Комментарии #2
Language : Russian

Text #4
ID : 9
Format : UTF-8
Codec ID : S_TEXT/UTF8
Codec ID/Info : UTF-8 Plain Text
Language : English
Свернуть
Не в сети
Профиль  
Начать новую темуОтветить на тему  [ 1 сообщение ] 
Вы не можете начинать темы
Вы не можете отвечать на сообщения
Вы не можете редактировать свои сообщения
Вы не можете удалять свои сообщения