Правила форума

  • В этом разделе создание новых тем Запрещено.
  • Для создания новых тем пользуйтесь Корневым разделом DVD и HD фильмы.
Начать новую темуОтветить на тему  [ 1 сообщение ] 
Торрент файл
Размер: 11.47 GB • Зарегистрирован: 5 лет 9 месяцев • Статус: Проверено
Скачан: 219 раз • Желающих скачать: 0 • Поблагодарили: 29 раз
 Раздают: 1  |  0 KB/s  ]   Качают: 0  |  0 KB/s  ] 
Сообщения
 Добавлено: 2011-03-10 22:56
Аватара пользователя
Стаж: 8 лет
Возраст: 23
Сообщений: 2472
Спасибок: 27962
Лайков: 2
Хроники Нарнии: Покоритель Зари / The Chronicles of Narnia: The Voyage of the Dawn Treader


«Назад в волшебство. Назад к надежде. Назад в Нарнию.»



Изображение
Год выпуска: 2010
Страна: Изображение США
Жанр: фэнтези, приключения, семейный
Продолжительность:
01:48:04

Перевод: Профессиональный (полное дублирование) [лицензия]

Режиссер: Майкл Эптид
Сценарий: Кристофер Маркус, Стефен МакФили, Майкл Петрони, К.С. Льюис
Продюсер: Эндрю Адамсон, Марк Джонсон, Филип Стюер, Дуглас Грешам, Корт Кристенсен
Оператор: Данте Спинотти
Композитор: Дэвид Арнольд

В ролях:
Бен Барнс (Caspian), Скандар Кейнс (Edmund Pevensie), Джорджи Хенли (Lucy Pevensie), Уилл Поултер (Eustace Clarence Scrubb), Гари Свит (Drinian), Тильда Суинтон (The White Witch), Анна Попплуэлл (Susan Pevensie), Уильям Моусли (Peter Pevensie), Лиам Нисон (Aslan, озвучка), Саймон Пегг (Reepicheep, озвучка), Терри Норрис (Lord Bern), Брюс Спенс (Lord Rhoop)
Дублёры: Александр Трофимов (Caspian) (Caspian), Андрей Кошкин (Edmund Pevensie) (Edmund Pevensie), Александра Матвеева (Lucy Pevensie) (Lucy Pevensie), Анатолий Петров (Drinian) (Drinian), Ирина Ракшина (The White Witch) (The White Witch), Виктория Слуцкая (Susan Pevensie) (Susan Pevensie), Глеб Гаврилов (Peter Pevensie) (Peter Pevensie), Дмитрий Лагачев (Aslan) (Aslan), Сергей Дьячков (Reepicheep) (Reepicheep), Юрий Дедович (Lord Bern) (Lord Bern), Андрей Шамин (Lord Rhoop) (Lord Rhoop), Виктор Костецкий (Coriakin) (Coriakin)

Описание: Эдмунд, Люси, их кузен Юстас и король Каспиан отплывают на корабле «Покоритель Зари» на поиски друзей отца Каспиана - семи лордов: Ревелиана, Берна, Аргоза, Мавроморна, Октезиана, Рестимара и Рупа, изгнанных во время недолгого правления тирана Мираза.


Изображение: 6.886 (11 863)
Изображение: 6.60 (11 607)

MPAA: Изображение - Рекомендуется присутствие родителей

Доп. Информация

Бюджет: $155 000 000
Сборы в США: $104 017 861
Сборы в России: $18 981 876
Сборы в мире: $397 017 861
Мировая премьера: 2 декабря 2010
Изображение Релиз на DVD: 27 января 2011, «Двадцатый Век Фокс СНГ»
Изображение Релиз на Blu-ray: 19 мая 2011, «Двадцатый Век Фокс СНГ»

Свернуть

Качество: BDRip 1080p R5

Формат: Matroska
Видео: AVC 12.3 mb/s, 1920x1080
Аудио: Russian: DTS, 755 kb/s (6 ch) / English: DTS, 1510 kb/s (6 ch)
Субтитры: Russian, English
Изображение


Знаете ли Вы, что...
  • Фильм снят по произведению Клайва Стейплза Льюиса.
  • Основные съемки фильма «Хроники Нарнии. Покоритель Зари» начались в штате Квинсленд, Австралия, 27 июля 2009 г., где осуществлялся полностью весь процесс производства, занявший 90 дней. Павильонные съемки проводились в нескольких киносъемочных павильонах студии Warner Roadshow в Голд Коуст.
  • На морском мысе Кливленд Пойнт был создан заглавный персонаж фильма, величественный Покоритель Зари. После съемок под открытым небом, конструкцию высотой 140 футов и весом 125 тон разобрали более чем на пятьдесят элементов и отвезли обратно на студию, чтобы снимать дальше в павильоне. Процесс съемок завершился в ноябре 2009 г.
Свернуть
BDInfo

Полное имя : The.Chronicles.Of.Narnia.The.Voyage.Of.The.Dawn.Treader.2010.D.BDRip.1080p.mkv
Формат : Matroska
Размер файла : 11,5 Гбайт
Продолжительность : 1 ч. 52 м.
Общий поток : 14,6 Мбит/сек
Дата кодирования : UTC 2011-03-10 16:06:53
Программа кодирования : mkvmerge v4.4.0 ('Die Wiederkehr') сборка от Oct 31 2010 21:52:48
Библиотека кодирования : libebml v1.0.0 + libmatroska v1.0.0

Видео
Идентификатор : 1
Формат : AVC
Формат/Информация : Advanced Video Codec
Профиль формата : High@L4.1
Параметр CABAC формата : Да
Параметр ReFrames формата : 4 кадры
Идентификатор кодека : V_MPEG4/ISO/AVC
Продолжительность : 1 ч. 52 м.
Битрейт : 12,3 Мбит/сек
Ширина : 1920 пикс.
Высота : 1080 пикс.
Соотношение сторон : 16:9
Частота кадров : 23,976 кадр/сек
Цветовое пространство : YUV
Подвыборка цветности : 4:2:0
Битовая глубина : 8 бит
Тип развёртки : Прогрессивная
Бит/(Пиксели*Кадры) : 0.248
Размер потока : 9,46 Гбайт (82%)
Библиотека кодирования : x264 core 107 r1766 f9f0035
Настройки программы : cabac=1 / ref=4 / deblock=1:-3:-3 / analyse=0x3:0x113 / me=umh / subme=10 / psy=1 / psy_rd=1.10:0.15 / mixed_ref=1 / me_range=48 / chroma_me=1 / trellis=2 / 8x8dct=1 / cqm=2 / deadzone=21,11 / fast_pskip=0 / chroma_qp_offset=-2 / threads=12 / sliced_threads=0 / nr=0 / decimate=1 / interlaced=0 / constrained_intra=0 / bframes=6 / b_pyramid=2 / b_adapt=2 / b_bias=0 / direct=3 / weightb=1 / open_gop=0 / weightp=2 / keyint=250 / keyint_min=23 / scenecut=40 / intra_refresh=0 / rc_lookahead=60 / rc=2pass / mbtree=1 / bitrate=12305 / ratetol=1.0 / qcomp=0.70 / qpmin=10 / qpmax=51 / qpstep=4 / cplxblur=20.0 / qblur=0.5 / vbv_maxrate=40000 / vbv_bufsize=30000 / ip_ratio=1.40 / aq=1:0.90 / nal_hrd=none
Язык : English

Аудио #1
Идентификатор : 2
Формат : DTS
Формат/Информация : Digital Theater Systems
Идентификатор кодека : A_DTS
Продолжительность : 1 ч. 52 м.
Вид битрейта : Постоянный
Битрейт : 755 Кбит/сек
Канал(ы) : 6 канала(ов)
Расположение каналов : Front: L C R, Side: L R, LFE
Частота : 48,0 КГц
Битовая глубина : 24 бит
Метод сжатия : С потерями
Размер потока : 608 Мбайт (5%)
Заголовок : DTS 5.1 @ 768 kbps - Dub, R5
Язык : Russian

Аудио #2
Идентификатор : 3
Формат : DTS
Формат/Информация : Digital Theater Systems
Идентификатор кодека : A_DTS
Продолжительность : 1 ч. 52 м.
Вид битрейта : Постоянный
Битрейт : 1510 Кбит/сек
Канал(ы) : 6 канала(ов)
Расположение каналов : Front: L C R, Side: L R, LFE
Частота : 48,0 КГц
Битовая глубина : 24 бит
Метод сжатия : С потерями
Размер потока : 1,19 Гбайт (10%)
Заголовок : DTS 5.1 @ 1536 kbps
Язык : English

Текст #1
Идентификатор : 4
Формат : UTF-8
Идентификатор кодека : S_TEXT/UTF8
Идентификатор кодека/Информация : UTF-8 Plain Text
Язык : Russian

Текст #2
Идентификатор : 5
Формат : UTF-8
Идентификатор кодека : S_TEXT/UTF8
Идентификатор кодека/Информация : UTF-8 Plain Text
Язык : English
Свернуть
Скриншоты

Изображение
Изображение
Изображение
Изображение
Свернуть

_________________
Изображение

Изображение
Не в сети
Профиль  
Начать новую темуОтветить на тему  [ 1 сообщение ] 
Вы не можете начинать темы
Вы не можете отвечать на сообщения
Вы не можете редактировать свои сообщения
Вы не можете удалять свои сообщения