Правила форума

  • В этом разделе создание новых тем Запрещено.
  • Для создания новых тем пользуйтесь Корневым разделом DVD и HD фильмы.
Начать новую темуОтветить на тему  [ Сообщений: 2 ] 
Торрент файл
Размер: 12.98 GB • Зарегистрирован: 5 лет 10 месяцев • Статус: Проверено
Скачан: 167 раз • Желающих скачать: 0 • Поблагодарили: 28 раз
 Раздают: 1  |  0 KB/s  ]   Качают: 0  |  0 KB/s  ] 
Сообщения
 Добавлено: 2011-01-04 01:53
Top-releaser
Аватара пользователя
Стаж: 6 лет 11 месяцев
Возраст: 45
Сообщений: 299
Спасибок: 4106
Лайков: 3
Хроники Нарнии: Принц Каспиан / The Chronicles of Narnia: Prince Caspian
«Всё, что вы знаете, скоро изменится»

Изображение

Год выпуска: 2008
Страна: США
Жанр: фэнтези, боевик, приключения, семейный
Продолжительность: 02:29:58
Перевод: Профессиональный (полное дублирование)

Режиссер: Эндрю Адамсон / Andrew Adamson
Сценарий: Эндрю Адамсон / Andrew Adamson, Кристофер Маркус / Christopher Markus, Стефен МакФили / Stephen McFeely, К.С. Льюис / C.S. Lewis
Продюсер: Эндрю Адамсон / Andrew Adamson, Том Уильямс / Tom Williams, Диего Занко / Diego Zanco, Дуглас Грешам / Douglas Gresham, К.С. Ходенфилд / K.C. Hodenfield
Оператор: Карл Вальтер Линденлауб / Karl Walter Lindenlaub
Композитор: Гарри Грегсон-Уильямс / Harry Gregson-Williams

В ролях: Бен Барнс (Prince Caspian), Джорджи Хенли (Lucy Pevensie), Скандар Кейнс (Edmund Pevensie), Уильям Моусли (Peter Pevensie), Анна Попплуэлл (Susan Pevensie), Серджо Кастеллитто (Miraz), Питер Динклэйдж (Trumpkin), Уорвик Дэвис (Nikabrik), Винсент Грасс (Doctor Cornelius), Пьерфранческо Фавино (General Glozelle), Джон Корнелл (Glenstorm), Дамиан Альказар (Lord Sopespian)
Описание: Люси, Сьюзен, Эдмунд и Питер Пэванси возвращаются в Нарнию. В Англии прошло совсем немного времени, а в Нарнии - века. Страна находится под гнетом зловещего короля Мираза. Но у волшебного королевства есть надежда - юный принц Каспиан. Чтобы помочь Каспиану отвоевать трон, четверо героев собирают армию мифических существ во главе с Асланом - основателем и покровителем Нарнии…

Изображение
Бюджет: $225 000 000
Сборы в США: $141 621 490
Сборы в России: $14 834 800
Сборы в мире: $419 651 413
Мировая премьера: 9 мая 2008
Релиз на DVD: 29 января 2009, «Уолт Дисней Компани СНГ»
Релиз на Blu-ray: 27 августа 2009, «Уолт Дисней Компани СНГ»
Изображение

MPAA: Изображение - Рекомендуется присутствие родителей
Качество: BDRip, 1080p
Формат: Matroska
Видео: AVC; 1920x800 (2.40:1); 9916 Kbps; 23,976 fps; 0,269 bpp
Аудио №1: Russian; 48000Hz; AC3; 640 Kbps; CBR; 6 ch; [Профессиональный (полное дублирование)]
Аудио №2: English; 48000Hz; DTS; 1509 Kbps; CBR; 6 ch; 24 bit
Аудио №3: Vorbis; 48000Hz; 80 Kbps; 2 ch; [Commentary]
Субтитры №1: Russian
Субтитры №2: Russian
Субтитры №3: English

Раздача группы:Изображение

"MediaInfo"

General
Complete name : The.Chronicles.of.Narnia.Prince.Caspian.1080p.mkv
Format : Matroska
File size : 13.0 GiB
Duration : 2h 29mn
Overall bit rate : 12.4 Mbps
Movie name : -=SkyD=-HQ-Films.ws
Encoded date : UTC 2008-11-20 22:59:20
Writing application : mkvmerge v2.4.0 ('Fumbling Towards Ecstasy') built on Oct 11 2008 20:13:15
Writing library : libebml v0.7.7 + libmatroska v0.8.1

Video
ID : 1
Format : AVC
Format/Info : Advanced Video Codec
Format profile : High@L4.1
Format settings, CABAC : Yes
Format settings, ReFrames : 5 frames
Muxing mode : Container profile=Unknown@4.1
Codec ID : V_MPEG4/ISO/AVC
Duration : 2h 29mn
Bit rate : 10.2 Mbps
Width : 1 920 pixels
Height : 800 pixels
Display aspect ratio : 2.40:1
Frame rate : 23.976 fps
Color space : YUV
Chroma subsampling : 4:2:0
Bit depth : 8 bits
Scan type : Progressive
Bits/(Pixel*Frame) : 0.276
Stream size : 10.4 GiB (80%)
Title : The Chronicles of Narnia Prince Caspian - HQF
Writing library : x264 core 65 r1019 a5ac6a5
Encoding settings : cabac=1 / ref=5 / deblock=1:-3:-3 / analyse=0x3:0x113 / me=umh / subme=9 / psy_rd=0.7:0.3 / mixed_ref=1 / me_range=24 / chroma_me=1 / trellis=2 / 8x8dct=1 / cqm=0 / deadzone=8,6 / chroma_qp_offset=-4 / threads=6 / nr=0 / decimate=1 / mbaff=0 / bframes=3 / b_pyramid=1 / b_adapt=2 / b_bias=0 / direct=1 / wpredb=1 / keyint=250 / keyint_min=25 / scenecut=40(pre) / rc=2pass / bitrate=10168 / ratetol=1.0 / qcomp=0.60 / qpmin=10 / qpmax=51 / qpstep=4 / cplxblur=20.0 / qblur=0.5 / vbv_maxrate=50000 / vbv_bufsize=40000 / ip_ratio=1.40 / pb_ratio=1.30 / aq=1:0.70
Language : English

Audio #1
ID : 2
Format : AC-3
Format/Info : Audio Coding 3
Mode extension : CM (complete main)
Codec ID : A_AC3
Duration : 2h 29mn
Bit rate mode : Constant
Bit rate : 640 Kbps
Channel(s) : 6 channels
Channel positions : Front: L C R, Side: L R, LFE
Sampling rate : 48.0 KHz
Bit depth : 16 bits
Stream size : 687 MiB (5%)
Title : AC3_5.1_640kbps
Language : Russian

Audio #2
ID : 3
Format : DTS
Format/Info : Digital Theater Systems
Codec ID : A_DTS
Duration : 2h 29mn
Bit rate mode : Constant
Bit rate : 1 510 Kbps
Channel(s) : 6 channels
Channel positions : Front: L C R, Side: L R, LFE
Sampling rate : 48.0 KHz
Bit depth : 24 bits
Stream size : 1.58 GiB (12%)
Title : DTS_5.1_1536kbps
Language : English

Audio #3
ID : 4
Format : Vorbis
Format settings, Floor : 1
Codec ID : A_VORBIS
Duration : 2h 29mn
Bit rate : 80.0 Kbps
Channel(s) : 2 channels
Sampling rate : 48.0 KHz
Stream size : 85.8 MiB (1%)
Title : Commentary
Writing library : libVorbis 1.2 (UTC 2007-06-22)

Text #1
ID : 5
Format : UTF-8
Codec ID : S_TEXT/UTF8
Codec ID/Info : UTF-8 Plain Text
Title : forced
Language : Russian

Text #2
ID : 6
Format : UTF-8
Codec ID : S_TEXT/UTF8
Codec ID/Info : UTF-8 Plain Text
Title : norm
Language : Russian

Text #3
ID : 7
Format : ASS
Codec ID : S_TEXT/ASS
Codec ID/Info : Advanced Sub Station Alpha
Language : English
Свернуть
"Скриншоты"
Изображение
Изображение
Изображение
Изображение
Изображение
Изображение
Свернуть
"Знаете ли Вы, что..."
  • Общее число предметов одежды, сшитой для исполнителей главных ролей: 1042.
  • Общее число предметов одежды, в том числе шлемов, масок, обуви и перчаток, изготовленных для Короля Мираза, его лордов и воинов армии Тельмаринцев – 3722.
  • Число металлических колец, использованных для создания одной кольчуги воина-Тельмаринца – 2184. Всего было использовано 850 тысяч таких колец.
  • Над костюмами работало 70 человек. Актеры и члены съемочной группы «Принца Каспиана» приехали из 15 разных стран, в том числе Чехии, Новой Зеландии, США, Великобритании, Австралии, Канады, Германии, Польши, Словении, Испании, Мексики, Италии и Франции.
  • Число континентов, которые режиссер Эндрю Эдамсон посетил при выборе места для съемок – 5. Основные места съемок – Новая Зеландия, Чехия, Словения, Польша.
  • Историческая киностудия «Баррандов» в Праге, где были возведены основные декорации «Принца Каспиана», в последние годы стала популярным местом для съемок голливудских фильмов, таких как «Казино Рояль» и «Идентификация Борна».
  • Ричард Тейлор из новозеландской мастерской Weta Workshop спроектировал почти 600 единиц вооружения для защитников Нарнии и воинов-Тельмаринцев. Это число включает в себя 200 копий и алебард, 200 рапир, 100 мечей, 250 щитов и 55 арбалетов.Тейлор также спроектировал мягкие щиты и особую упряжь для использования в ключевых боевых сценах с участием лошадей.
  • Главный художник фильма «Принц Каспиан» Роджер Форд работает в кино более сорока лет, но декорации для замка Короля Мираза, возведенные на киностудии «Баррандов» – самые большие из тех, которые он когда-либо строил. Декорации замка короля Мираза занимали 1858 квадратных метров, его внешний вид частично был основан на изображениях французского замка Пьерфон (Pierrefonds), который расположен недалеко от Парижа. 200 плотников, штукатурщиков и художников 15 недель строили этот замок. В финальном варианте сцен с замком, специалисты по компьютерной графике увеличили его изображение в три раза. Деревянный мост, на котором разыгрывается одна из финальных батальных сцен «Принца Каспиана» был возведен на реке Сока, в курортной местности Бовец, в Словении. В строительстве принимали участие 20 инженеров и строителей, которые работали на постройке моста целый месяц.Роджер Форд, проектируя мост, основывался на рисунках моста, который Юлий Цезарь построил через Рейн во время войны с германцами. Чтобы осуществить план Форда, инженеры временно изменили течение реки Сока.
  • Станция Лондонской подземки, откуда дети Певенси начинают свое путешествие в «Принце Каспиане» - вовсе не в Лондоне. Форд построил реалистичные декорации лондонского метро на киностудии «Хендерсон», на севере Новой Зеландии.
  • Художник по гриму Говард Бергер работал с командой из 50 гримеров и провел 4,600 индивидуальных грим-сессий во время съемок.
  • Актер Уорвик Дэвис проводил ежедневно по 3 с половиной часа, крася лицо, чтобы превратиться в черного гнома Никабрика.
  • Уорвик Дэвис – единственный актер, который играл в двух версиях экранизаций «Хроник Нарнии». В «Принце Каспиане» он играет черного гнома Никабрика, а в 1989 в «Принце Каспиане» в постановке телеканала BBC он играл воинственного мыша Рипичипа. В новом фильме «Хроники Нарнии: Принц Каспиан» Рипичип полностью создан с помощью компьютерных технологий.
  • Режиссер Эндрю Адамсон больше года искал подходящего актера на роль принца Каспиана, и 26-летнего британского актера Бена Барнса он нашел всего за 3 недели до начала съемок.
  • На протяжении съемок «Принца Каспиана» ежедневно для актеров и съемочной группы изготавливалось 1,100 обедов. Общее число обедов, изготовленных за время съемок – 200 тысяч.
  • Корнеллу Джону, исполнителю роли кентавра Гленсторма, пришлось освоить ходули-джамперы, позднее превращенные на компьютере в лошадиные ноги.
Свернуть
Не в сети
Профиль  
 Добавлено: 2013-01-03 19:12 (спустя 1 год 11 месяцев)
Аватара пользователя
Стаж: 7 лет 4 месяца
Сообщений: 12
Встаньте на раздачу, пожалуйста.
Не в сети
Профиль  
Начать новую темуОтветить на тему  [ Сообщений: 2 ] 
Вы не можете начинать темы
Вы не можете отвечать на сообщения
Вы не можете редактировать свои сообщения
Вы не можете удалять свои сообщения