Правила форума

  • В этом разделе создание новых тем Запрещено.
  • Для создания новых тем пользуйтесь Корневым разделом DVD и HD фильмы.
Начать новую темуОтветить на тему  [ Сообщений: 2 ] 
Торрент файл
Размер: 6.65 GB • Зарегистрирован: 3 года 5 месяцев • Статус: Проверено
Скачан: 39 раз • Желающих скачать: 0 • Поблагодарили: 9 раз
 Раздают: 0  |  0 KB/s  ]   Качают: 0  |  0 KB/s  ] 
 Полного источника не было 2 года 3 месяца 
Сообщения
 Добавлено: 2013-06-14 05:53
Аватара пользователя
Стаж: 8 лет 7 месяцев
Сообщений: 572
Спасибок: 12628
Лайков: 11
Хватай и беги

Hit and Run

«Когда прошлое висит на хвосте»

Изображение


Год выпуска: 2012
Страна: США
Жанр: Боевик, мелодрама, комедия
Продолжительность: 01:40:07
Перевод: Профессиональный (многоголосый закадровый)

Режиссёр: Дэвид Палмер, Дэкс Шепард
В ролях: Кристен Белл, Дэкс Шепард, Том Арнольд, Кристин Ченоуэт, Майкл Розенбаум, Джесс Роулэнд, Карли Хаттер, Стив Эйджи, Брэдли Купер, Джой Брайант, Кэлл Беннетт, Джон Дафф, Дэвид Кекнер, Райан Хансен, Бо Бриджес, Джейсон Бейтмен, Нат Так, Мэтт Мошер, Шон Хейс
Описание: Бывший грабитель банков Чарли, когда-то пошедший на сделку с правосудием, скрывается в маленьком калифорнийском городке: у него свой дом, налаженный быт и любимая девушка Энни. Когда Энни узнает, что у нее есть шанс получить работу мечты в Лос-Анджелесе, она уговаривает Чарли нарушить правила, высунуть нос из городка и отвезти ее на собеседование.Программа по защите свидетелей дает сбой, и на след Чарли выходят его бывшие подельники, во главе с мстительным психопатом Алексом. К погоне также присоединяются неуравновешенный федеральный маршал, приставленный для охраны Чарли, и ревнивый бывший парень Энни. Вместо увеселительной прогулки Чарли ждет непрекращающаяся череда столкновений, ловушек и подстав — не говоря уже о встречах с колоритными жителями Южной Калифорнии, которые вносят дополнительные нотки сумасшествия в и без того безумную гонку.


Качество: BDRip 720p
Формат: MKV
Видео кодек: MPEG-4 AVC
Аудио кодек: AC3 (Dolby Digital)
Видео: MPEG-4 AVC, 7388 Кбит/с, 1280x534
Аудио #1: Русский (АС3, 6 ch, 448 Кбит/с) [Профессиональный (многоголосый закадровый)]
Аудио #2: английский (DTS, 6 ch, 1510 Кбит/с)
Скриншоты
Изображение
Изображение
Изображение
Изображение
Свернуть

MediaInfo
General
Unique ID : 193483573770302089560810872279620492519 (0x918F94B265BB669A8D8F8A98575D9CE7)
Complete name : F:\TORRENT\Video\Hvataj.i.begi.2012.P.BDRip.720p.NNTT.mkv
Format : Matroska
Format version : Version 2
File size : 6.65 GiB
Duration : 1h 39mn
Overall bit rate : 9 536 Kbps
Movie name : IRONCLUB
Encoded date : UTC 2013-06-13 09:11:10
Writing application : mkvmerge v5.2.0 ('I can't explain') built on Dec 18 2011 18:12:03
Writing library : libebml v1.2.3 + libmatroska v1.3.0

Video
ID : 1
Format : AVC
Format/Info : Advanced Video Codec
Format profile : High@L4.1
Format settings, CABAC : Yes
Format settings, ReFrames : 12 frames
Codec ID : V_MPEG4/ISO/AVC
Duration : 1h 39mn
Bit rate : 7 389 Kbps
Width : 1 280 pixels
Height : 534 pixels
Display aspect ratio : 2.40:1
Frame rate mode : Constant
Frame rate : 23.976 fps
Color space : YUV
Chroma subsampling : 4:2:0
Bit depth : 8 bits
Scan type : Progressive
Bits/(Pixel*Frame) : 0.451
Stream size : 5.15 GiB (77%)
Title : Hit.and.Run.2012.720p.BluRay.DTS.x264-ThD
Writing library : x264 core 129 r2245kMod bc13772
Encoding settings : cabac=1 / ref=12 / deblock=1:-3:-3 / analyse=0x3:0x133 / me=umh / subme=11 / psy=1 / fade_compensate=0.00 / psy_rd=1.10:0.00 / mixed_ref=1 / me_range=32 / chroma_me=1 / trellis=2 / 8x8dct=1 / cqm=0 / deadzone=21,11 / fast_pskip=0 / chroma_qp_offset=-2 / threads=16 / lookahead_threads=2 / sliced_threads=0 / nr=0 / decimate=0 / interlaced=0 / bluray_compat=0 / constrained_intra=0 / bframes=9 / b_pyramid=2 / b_adapt=2 / b_bias=0 / direct=3 / weightb=1 / open_gop=0 / weightp=2 / keyint=250 / keyint_min=23 / scenecut=40 / intra_refresh=0 / rc=crf / mbtree=0 / crf=15.5000 / qcomp=0.85 / qpmin=0 / qpmax=69 / qpstep=4 / ip_ratio=1.20 / pb_ratio=1.10 / aq=2:0.80
Language : English
Default : Yes
Forced : Yes

Audio #1
ID : 2
Format : AC-3
Format/Info : Audio Coding 3
Mode extension : CM (complete main)
Format settings, Endianness : Big
Codec ID : A_AC3
Duration : 1h 39mn
Bit rate mode : Constant
Bit rate : 448 Kbps
Channel(s) : 6 channels
Channel positions : Front: L C R, Side: L R, LFE
Sampling rate : 48.0 KHz
Bit depth : 16 bits
Compression mode : Lossy
Stream size : 320 MiB (5%)
Title : DD 5.1 @ 448 kbps - MVO, R5
Language : Russian
Default : Yes
Forced : Yes

Audio #2
ID : 3
Format : DTS
Format/Info : Digital Theater Systems
Mode : 16
Format settings, Endianness : Big
Codec ID : A_DTS
Duration : 1h 39mn
Bit rate mode : Constant
Bit rate : 1 509 Kbps
Channel(s) : 6 channels
Channel positions : Front: L C R, Side: L R, LFE
Sampling rate : 48.0 KHz
Bit depth : 24 bits
Compression mode : Lossy
Stream size : 1.05 GiB (16%)
Title : DTS 5.1 @ 1510 kbps
Language : English
Default : No
Forced : No

Text
ID : 4
Format : UTF-8
Codec ID : S_TEXT/UTF8
Codec ID/Info : UTF-8 Plain Text
Title : SDH
Language : English
Default : No
Forced : No

Menu
00:00:00.000 : en:00:00:00.000
00:06:00.026 : en:00:06:00.026
00:11:58.801 : en:00:11:58.801
00:18:55.217 : en:00:18:55.217
00:24:01.481 : en:00:24:01.481
00:29:59.672 : en:00:29:59.672
00:36:58.007 : en:00:36:58.007
00:42:28.379 : en:00:42:28.379
00:49:15.202 : en:00:49:15.202
00:55:00.297 : en:00:55:00.297
01:00:24.537 : en:01:00:24.537
01:05:34.221 : en:01:05:34.221
01:11:59.314 : en:01:11:59.314
01:17:44.910 : en:01:17:44.910
01:24:29.272 : en:01:24:29.272
01:33:00.783 : en:01:33:00.783
Свернуть
Не в сети
Профиль  
 Добавлено: 2013-06-23 16:52 (спустя 9 дней)
Аватара пользователя
Стаж: 8 лет
Сообщений: 1390
Спасибок: 39
Лайков: 64
тупой фильм...недодрама...недокриминалкомедия хз что кароч :ne_ne: за кач-во спс
Не в сети
Профиль  
Начать новую темуОтветить на тему  [ Сообщений: 2 ] 
Вы не можете начинать темы
Вы не можете отвечать на сообщения
Вы не можете редактировать свои сообщения
Вы не можете удалять свои сообщения