Правила форума

  • В этом разделе создание новых тем Запрещено.
  • Для создания новых тем пользуйтесь Корневым разделом DVD и HD фильмы.
Начать новую темуОтветить на тему  [ 1 сообщение ] 
Торрент файл
Размер: 8.66 GB • Зарегистрирован: 3 года 10 месяцев • Статус: Проверено
Скачан: 24 раза • Желающих скачать: 0 • Поблагодарили: 5 раз
 Раздают: 0  |  0 KB/s  ]   Качают: 0  |  0 KB/s  ] 
 Полного источника не было 1 год 
Сообщения
 Добавлено: 2013-01-20 21:59
Модератор
Аватара пользователя
Стаж: 8 лет 7 месяцев
Сообщений: 4965
Спасибок: 110255
Лайков: 18
Изображение

Идеальный голос
Pitch Perfect


Год выпуска: 2012
Страна: США
Слоган: «Get Pitch Slapped»
Жанр: комедия, музыка
Продолжительность: 01:52:07
Перевод: Профессиональный одноголосый (А. Дасевич)
Субтитры: Russian(Groby), English, Spanish, French
Режиссер: Джейсон Мур
Сценарий: Кэй Кэннон, Mickey Rapkin
Продюсер: Элизабет Бэнкс, Пол Брукс, Макс Хандельман, Майкл П. Флэннигэн, Джефф Ливайн
Оператор: Хулио Макат
Композитор: Кристоф Бек, Марк Килиан
В ролях: Анна Кендрик, Скайлар Эстин, Даниил Эльдаров, Бен Платт, Бриттани Сноу, Анна Кэмп, Ребел Уилсон, Алексис Кнапп, Эстер Дин, Инна Королёва, Хана Мэй Ли, Kelley Jakle
Бюджет: $17 000 000
Сборы в США: $63 993 813
Сборы в мире: $76 793 813
Мировая премьера: 28 сентября 2012
Релиз на DVD: 14 февраля 2013, «Двадцатый Век Фокс СНГ»
Релиз на Blu-ray: 14 февраля 2013, «Двадцатый Век Фокс СНГ»
Описание: Картина основывается на книге Мики Рэпкина «Пой идеально: Погоня за славной вокалиста а капелла», в которой рассказывается о студентке, внезапно обнаружившей в себе страсть к пению а капелла, то есть, без музыкального сопровождения.

Изображение User Rating: 8.012 (182)
Изображение User Rating: 7.30 (19 090)
MPAA: PG-13 - Детям до 13 лет просмотр не желателен
Релиз от: Изображение
Раздача группы: Изображение
"NFO"
Формат : Matroska
Версия формата : Version 2
Размер файла : 8,66 Гбайт
Продолжительность : 1 ч. 52 м.
Общий поток : 11,1 Мбит/сек
Название фильма : BLUEBIRD
Дата кодирования : UTC 2013-01-02 20:25:53
Программа кодирования : mkvmerge v5.8.0 ('No Sleep / Pillow') built on Sep 2 2012 15:37:04
Библиотека кодирования : libebml v1.2.3 + libmatroska v1.3.0

Видео
Идентификатор : 1
Формат : AVC
Формат/Информация : Advanced Video Codec
Профиль формата : High@L4.1
Параметр CABAC формата : Да
Параметр ReFrames формата : 9 кадров
Идентификатор кодека : V_MPEG4/ISO/AVC
Продолжительность : 1 ч. 52 м.
Битрейт : 7430 Кбит/сек
Ширина : 1280 пикселей
Высота : 692 пикселя
Соотношение сторон : 1,85:1
Частота кадров : 23,976 кадра/сек
Цветовое пространство : YUV
Субдискретизация насыщенности : 4:2:0
Битовая глубина : 8 бит
Тип развёртки : Прогрессивная
Бит/(Пиксели*Кадры) : 0.350
Размер потока : 5,82 Гбайт (67%)
Заголовок : HiDt
Библиотека кодирования : x264 core 120 r2164 da19765
Настройки программы : cabac=1 / ref=9 / deblock=1:-3:-3 / analyse=0x3:0x113 / me=tesa / subme=10 / psy=1 / psy_rd=1.00:0.00 / mixed_ref=1 / me_range=24 / chroma_me=1 / trellis=2 / 8x8dct=1 / cqm=0 / deadzone=21,11 / fast_pskip=0 / chroma_qp_offset=-2 / threads=12 / sliced_threads=0 / nr=0 / decimate=1 / interlaced=0 / bluray_compat=0 / constrained_intra=0 / bframes=6 / b_pyramid=2 / b_adapt=2 / b_bias=0 / direct=3 / weightb=1 / open_gop=0 / weightp=2 / keyint=249 / keyint_min=25 / scenecut=40 / intra_refresh=0 / rc=crf / mbtree=0 / crf=15.3 / qcomp=0.75 / qpmin=0 / qpmax=69 / qpstep=4 / ip_ratio=1.40 / pb_ratio=1.30 / aq=1:0.70
Язык : English
Default : Да
Forced : Нет

Аудио #1
Идентификатор : 2
Формат : DTS
Формат/Информация : Digital Theater Systems
Идентификатор кодека : A_DTS
Продолжительность : 1 ч. 52 м.
Вид битрейта : Постоянный
Битрейт : 1510 Кбит/сек
Каналы : 6 каналов
Расположение каналов : Front: L C R, Side: L R, LFE
Частота : 48,0 КГц
Битовая глубина : 24 бит
Метод сжатия : С потерями
Размер потока : 1,18 Гбайт (14%)
Заголовок : А. Дасевич
Язык : Russian
Default : Да
Forced : Нет

Аудио #2
Идентификатор : 3
Формат : DTS
Формат/Информация : Digital Theater Systems
Идентификатор кодека : A_DTS
Продолжительность : 1 ч. 52 м.
Вид битрейта : Постоянный
Битрейт : 1510 Кбит/сек
Каналы : 6 каналов
Расположение каналов : Front: L C R, Side: L R, LFE
Частота : 48,0 КГц
Битовая глубина : 24 бит
Метод сжатия : С потерями
Размер потока : 1,18 Гбайт (14%)
Язык : English
Default : Нет
Forced : Нет

Аудио #3
Идентификатор : 4
Формат : AC-3
Формат/Информация : Audio Coding 3
Профиль формата : Dolby Digital
Расширение режима : CM (complete main)
Параметр Endianness формата : Big
Идентификатор кодека : A_AC3
Продолжительность : 1 ч. 52 м.
Вид битрейта : Постоянный
Битрейт : 192 Кбит/сек
Каналы : 2 канала
Расположение каналов : Front: L R
Частота : 48,0 КГц
Битовая глубина : 16 бит
Метод сжатия : С потерями
Размер потока : 154 Мбайт (2%)
Заголовок : Commentary DD2.0
Язык : English
Default : Нет
Forced : Нет

Аудио #4
Идентификатор : 5
Формат : AC-3
Формат/Информация : Audio Coding 3
Профиль формата : Dolby Digital
Расширение режима : CM (complete main)
Параметр Endianness формата : Big
Идентификатор кодека : A_AC3
Продолжительность : 1 ч. 52 м.
Вид битрейта : Постоянный
Битрейт : 192 Кбит/сек
Каналы : 2 канала
Расположение каналов : Front: L R
Частота : 48,0 КГц
Битовая глубина : 16 бит
Метод сжатия : С потерями
Размер потока : 154 Мбайт (2%)
Заголовок : Commentary DD2.0
Язык : English
Default : Нет
Forced : Нет

Текст #1
Идентификатор : 6
Формат : UTF-8
Идентификатор кодека : S_TEXT/UTF8
Идентификатор кодека/Информация : UTF-8 Plain Text
Заголовок : Groby
Язык : Russian
Default : Нет
Forced : Нет

Текст #2
Идентификатор : 7
Формат : UTF-8
Идентификатор кодека : S_TEXT/UTF8
Идентификатор кодека/Информация : UTF-8 Plain Text
Язык : English
Default : Нет
Forced : Нет

Текст #3
Идентификатор : 8
Формат : UTF-8
Идентификатор кодека : S_TEXT/UTF8
Идентификатор кодека/Информация : UTF-8 Plain Text
Язык : Spanish
Default : Нет
Forced : Нет

Текст #4
Идентификатор : 9
Формат : UTF-8
Идентификатор кодека : S_TEXT/UTF8
Идентификатор кодека/Информация : UTF-8 Plain Text
Язык : French
Default : Нет
Forced : Нет

Меню
00:00:00.000 : en:00:00:00.000
00:04:32.564 : en:00:04:32.564
00:09:17.932 : en:00:09:17.932
00:15:50.908 : en:00:15:50.908
00:19:45.643 : en:00:19:45.643
00:23:08.470 : en:00:23:08.470
00:27:47.332 : en:00:27:47.332
00:32:45.755 : en:00:32:45.755
00:38:59.212 : en:00:38:59.212
00:43:53.881 : en:00:43:53.881
00:49:57.411 : en:00:49:57.411
00:54:20.466 : en:00:54:20.466
01:01:48.580 : en:01:01:48.580
01:06:26.441 : en:01:06:26.441
01:11:56.270 : en:01:11:56.270
01:18:56.899 : en:01:18:56.899
01:23:23.165 : en:01:23:23.165
01:33:42.116 : en:01:33:42.116
01:38:49.590 : en:01:38:49.590
01:44:46.238 : en:01:44:46.238
Свернуть

Качество: BDRip 720p
Формат: MKV
Видео: 1280x692, 23.976 fps, x264 (L4.1), 7299 Kbps
Аудио №1: Russian 48 kHz, DTS 5.1 @ 1510 Kbps (AVO=> А. Дасевич)
Аудио №2: English 48 kHz, DTS 5.1 @ 1510 Kbps
Аудио №3: English 48 kHz, AC3 2.0 @ 192 Kbps |Commentary|
Аудио №4: English 48 kHz, AC3 2.0 @ 192 Kbps |Commentary|

Рип от HiDt!
"Знаете ли Вы, что..."
  • Фильм «Идеальный голос» (Pitch Perfect) - адаптация книги американского писателя Микки Рэпкина (Mickey Rapkin).
Свернуть
Скриншоты

Изображение
Изображение
Изображение
Свернуть
_________________
Изображение Изображение Изображение
Билайн / АДС добавляйте ретрекер, чтобы качать на скорости 100 Мбит/с
Cкрытый текст
Изображение
Свернуть
Не в сети
Профиль  
Начать новую темуОтветить на тему  [ 1 сообщение ] 
Вы не можете начинать темы
Вы не можете отвечать на сообщения
Вы не можете редактировать свои сообщения
Вы не можете удалять свои сообщения