Правила форума

  • В этом разделе создание новых тем Запрещено.
  • Для создания новых тем пользуйтесь Корневым разделом DVD и HD фильмы.
Начать новую темуОтветить на тему  [ 1 сообщение ] 
Торрент файл
Размер: 6.34 GB • Зарегистрирован: 3 года 11 месяцев • Статус: Проверено
Скачан: 30 раз • Желающих скачать: 0 • Поблагодарили: 3 раза
 Раздают: 0  |  0 KB/s  ]   Качают: 0  |  0 KB/s  ] 
 Полного источника не было 3 года 2 месяца 
Сообщения
 Добавлено: 2012-12-28 08:17
Модератор
Аватара пользователя
Стаж: 6 лет 10 месяцев
Возраст: 33
Сообщений: 5908
Спасибок: 61260
Лайков: 3540
Изображение

Идеальный голос
Pitch Perfect


Год выпуска: 2012
Страна: США
Слоган: «Get Pitch Slapped»
Жанр: комедия, музыка
Продолжительность: 01:52:07
Перевод: Авторский (Вячеслав Замез)
Режиссер: Джейсон Мур
Сценарий: Кэй Кэннон, Mickey Rapkin
Продюсер: Элизабет Бэнкс, Пол Брукс, Макс Хандельман, Майкл П. Флэннигэн, Джефф Ливайн
Оператор: Хулио Макат
Композитор: Кристоф Бек, Марк Килиан
В ролях: Анна Кендрик, Скайлар Эстин, Даниил Эльдаров, Бен Платт, Бриттани Сноу, Анна Кэмп, Ребел Уилсон, Алексис Кнапп, Эстер Дин, Инна Королёва, Хана Мэй Ли, Kelley Jakle
Бюджет: $17 000 000
Сборы в США: $63 993 813
Сборы в мире: $76 793 813
Мировая премьера: 28 сентября 2012
Релиз на DVD: 14 февраля 2013, «Двадцатый Век Фокс СНГ»
Релиз на Blu-ray: 14 февраля 2013, «Двадцатый Век Фокс СНГ»
Описание: Картина основывается на книге Мики Рэпкина «Пой идеально: Погоня за славной вокалиста а капелла», в которой рассказывается о студентке, внезапно обнаружившей в себе страсть к пению а капелла, то есть, без музыкального сопровождения.

Изображение User Rating: 8.012 (182)
Изображение User Rating: 7.30 (19 090)
MPAA: PG-13 - Детям до 13 лет просмотр не желателен
Раздача группы: Изображение
Изображение
Качество: BDRip 720p
Формат: AVI
Видео: MPEG-4 AVC, 1280x694, 6841 kbps, 23.976 fps
Аудио: Russian: AC3, 448 kb/s (6 ch) / English: AC3, 640 kb/s (6 ch)
mediainfo
General
Unique ID : 213930162245356351152617119705731561683 (0xA0F17357165275FE95F885B058C5F8D3)
Complete name : Idealnyj.golos.2012.L1.BDRip.720p.mkv
Format : Matroska
Format version : Version 2
File size : 6.34 GiB
Duration : 1h 52mn
Overall bit rate : 8 090 Kbps
Movie name : Pitch Perfect 2012
Encoded date : UTC 2012-12-22 20:27:07
Writing application : mkvmerge v5.2.0 ('I can't explain') built on Dec 18 2011 18:12:03
Writing library : libebml v1.2.3 + libmatroska v1.3.0

Video
ID : 1
Format : AVC
Format/Info : Advanced Video Codec
Format profile : High@L4.1
Format settings, CABAC : Yes
Format settings, ReFrames : 9 frames
Codec ID : V_MPEG4/ISO/AVC
Duration : 1h 52mn
Bit rate : 6 841 Kbps
Width : 1 280 pixels
Height : 694 pixels
Display aspect ratio : 1.85:1
Frame rate : 23.976 fps
Color space : YUV
Chroma subsampling : 4:2:0
Bit depth : 8 bits
Scan type : Progressive
Bits/(Pixel*Frame) : 0.321
Stream size : 5.36 GiB (85%)
Title : Pitch Perfect 2012 720p BluRay x264 EbP
Writing library : x264 core 128 r2216 198a7ea
Encoding settings : cabac=1 / ref=9 / deblock=1:-3:-3 / analyse=0x3:0x113 / me=tesa / subme=9 / psy=1 / psy_rd=1.00:0.00 / mixed_ref=1 / me_range=16 / chroma_me=1 / trellis=2 / 8x8dct=1 / cqm=0 / deadzone=21,11 / fast_pskip=0 / chroma_qp_offset=-2 / threads=12 / lookahead_threads=2 / sliced_threads=0 / nr=0 / decimate=0 / interlaced=0 / bluray_compat=0 / constrained_intra=0 / bframes=7 / b_pyramid=2 / b_adapt=2 / b_bias=0 / direct=3 / weightb=1 / open_gop=0 / weightp=2 / keyint=250 / keyint_min=23 / scenecut=40 / intra_refresh=0 / rc=crf / mbtree=0 / crf=17.5 / qcomp=0.80 / qpmin=0 / qpmax=69 / qpstep=4 / ip_ratio=1.40 / pb_ratio=1.30 / aq=1:0.65 / zones=605,6535,crf=15/23444,26140,crf=15/32268,47100,crf=15/51544,53598,crf=15.5/58781,60555,crf=15.5/63150,75340,crf=15/78623,88823,crf=15/92090,93434,crf=15.5/95743,97248,crf=15/102463,109442,crf=15/110859,113571,crf=15.5/114904,115471,crf=15.5/131283,134911,crf=15/135199,149791,crf=15
Language : English
Default : Yes
Forced : Yes
Matrix coefficients : BT.709-5, BT.1361, IEC 61966-2-4 709, SMPTE RP177

Audio #1
ID : 2
Format : AC-3
Format/Info : Audio Coding 3
Mode extension : CM (complete main)
Format settings, Endianness : Big
Codec ID : A_AC3
Duration : 1h 52mn
Bit rate mode : Constant
Bit rate : 448 Kbps
Channel(s) : 6 channels
Channel positions : Front: L C R, Side: L R, LFE
Sampling rate : 48.0 KHz
Bit depth : 16 bits
Compression mode : Lossy
Stream size : 359 MiB (6%)
Title : DD 5.1 @ 448 kbps - L1, [zamez]
Language : Russian
Default : Yes
Forced : Yes

Audio #2
ID : 3
Format : AC-3
Format/Info : Audio Coding 3
Mode extension : CM (complete main)
Format settings, Endianness : Big
Codec ID : A_AC3
Duration : 1h 52mn
Bit rate mode : Constant
Bit rate : 640 Kbps
Channel(s) : 6 channels
Channel positions : Front: L C R, Side: L R, LFE
Sampling rate : 48.0 KHz
Bit depth : 16 bits
Compression mode : Lossy
Stream size : 513 MiB (8%)
Title : DD 5.1 @ 640 kbps
Language : English
Default : No
Forced : No

Text #1
ID : 4
Format : UTF-8
Codec ID : S_TEXT/UTF8
Codec ID/Info : UTF-8 Plain Text
Title : Groby
Language : Russian
Default : No
Forced : No

Text #2
ID : 5
Format : UTF-8
Codec ID : S_TEXT/UTF8
Codec ID/Info : UTF-8 Plain Text
Title : English SDH
Language : English
Default : No
Forced : No

Menu
00:00:00.000 : en:00:00:00.000
00:04:32.564 : en:00:04:32.564
00:09:17.932 : en:00:09:17.932
00:15:50.908 : en:00:15:50.908
00:19:45.643 : en:00:19:45.643
00:23:08.470 : en:00:23:08.470
00:27:47.332 : en:00:27:47.332
00:32:45.755 : en:00:32:45.755
00:38:59.212 : en:00:38:59.212
00:43:53.881 : en:00:43:53.881
00:49:57.411 : en:00:49:57.411
00:54:20.466 : en:00:54:20.466
01:01:48.580 : en:01:01:48.580
01:06:26.441 : en:01:06:26.441
01:11:56.270 : en:01:11:56.270
01:18:56.899 : en:01:18:56.899
01:23:23.165 : en:01:23:23.165
01:33:42.116 : en:01:33:42.116
01:38:49.590 : en:01:38:49.590
01:44:46.238 : en:01:44:46.238
Свернуть
"Знаете ли Вы, что..."
  • Фильм «Идеальный голос» (Pitch Perfect) - адаптация книги американского писателя Микки Рэпкина (Mickey Rapkin).
Свернуть
Скриншоты

Изображение
Изображение
Изображение
Свернуть


Добавлено спустя 1 минута:
Для поклонников шоу Голос
_________________
ИзображениеИзображение Изображение
Изображение
 tany1984 и di-ys1 нравится это.
Не в сети
Профиль  
Начать новую темуОтветить на тему  [ 1 сообщение ] 
Вы не можете начинать темы
Вы не можете отвечать на сообщения
Вы не можете редактировать свои сообщения
Вы не можете удалять свои сообщения