Правила форума

  • В этом разделе создание новых тем Запрещено.
  • Для создания новых тем пользуйтесь Корневым разделом DVD и HD фильмы.
Начать новую темуОтветить на тему  [ 1 сообщение ] 
Торрент файл
Размер: 7.61 GB • Зарегистрирован: 3 года 11 месяцев • Статус: Проверено
Скачан: 8 раз • Желающих скачать: 0 • Поблагодарили: 2 раза
 Раздают: 0  |  0 KB/s  ]   Качают: 0  |  0 KB/s  ] 
 Полного источника не было 3 года 2 месяца 
Сообщения
 Добавлено: 2012-12-14 11:04
Top-releaser
Аватара пользователя
Стаж: 6 лет 7 месяцев
Сообщений: 2078
Спасибок: 3230
Лайков: 9
Изображение

Идеальный шторм
The Perfect Storm


Год выпуска: 2000
Страна: США
Слоган: «Почувствуй его ярость»
Жанр: боевик, триллер, драма, приключения
Продолжительность: 02:09:49
Перевод: Профессиональный (полное дублирование)
Режиссер: Вольфганг Петерсен
Сценарий: Уильям Д. Уиттлиф, Себастьян Юнгер
Продюсер: Гэйл Кац, Вольфганг Петерсен, Паула Вайнштейн, Алан Б. Кертис, Дункан Хендерсон
Оператор: Джон Сил
Композитор: Джеймс Хорнер
В ролях: Джордж Клуни, Владимир Вихров, Марк Уолберг, Борис Шувалов, Дайан Лэйн, Ольга Зверева, Джон Си Райли, Юрий Маляров, Уильям Фихтнер, Александр Груздев, Джон Хоукс, Вячеслав Баранов
Бюджет: $140 000 000
Сборы в США: $182 618 434
Сборы в России: $1 360 000
Сборы в мире: $328 718 434
Мировая премьера: 26 июня 2000
Релиз на DVD: 31 мая 2012, «CP Дистрибуция»
Описание: Волны Атлантики вздымаются на 100-футовую высоту. Завывающий ветер невиданной силы. Хэллоуин 1991 года. Стихия наступает на трех фронтах, и один из них - ураган «Грейс» - поднимает сильнейший в истории человечества шторм.
Раздача группы: Изображение

Изображение User Rating: 7.498 (10 290)
Изображение User Rating: 6.30 (88 973)
MPAA: PG-13 - Детям до 13 лет просмотр не желателен
Качество: BDRip, 720p
Формат: Matroska
Видео: AVC; 1280x532 (2.40:1); 6250 Kbps; 23,976 fps; 0,383 bit/pixel
Аудио №1: Russian; AC3; 384 Kbps; CBR; 6 ch - Дубляж
Аудио №2: Russian; DTS; 754 Kbps; CBR; 6 ch; 24 bit - Одноголосый закадровый, Ю. Живов
Аудио №3: English; AC3; 640 Kbps; CBR; 6 ch
Аудио №4: English; Vorbis; 64 Kbps; 2 ch - Сommentary by director Wolfgang Petersen
Аудио №5: English; Vorbis; 64 Kbps; 2 ch - Сommentary by author Sebastian Junger
Аудио №6: English; Vorbis; 64 Kbps; 2 ch - Сommentary by fx supervisor S.Fangmeier and fx producer Helen O. Elswit

Субтитры: Russian, English, Finnish, French, German, Italian, Portuguese, Romanian, Spanish

MediaInfo
Общее
Уникальный идентификатор : 250842200966834962867487161901939011123 (0xBCB6735B8EA837279A50AAA9A019AE33)
Полное имя : Z:\WWW\TR-Downloads\The.Perfect.Storm.2000.720p.[R.G.Daredevil].mkv
Формат : Matroska
Версия формата : Version 1
Размер файла : 7,61 Гбайт
Продолжительность : 2 ч. 9 м.
Общий поток : 8388 Кбит/сек
Название фильма : The Perfect Storm (2000) - Release for HDClub
Дата кодирования : UTC 2009-03-01 02:25:02
Программа кодирования : mkvmerge v2.0.2 ('You're My Flame') built on Feb 21 2007 23:40:55
Библиотека кодирования : libebml v0.7.7 + libmatroska v0.8.1
Attachment : Yes / Yes / Yes

Видео
Идентификатор : 1
Формат : AVC
Формат/Информация : Advanced Video Codec
Профиль формата : High@L5.1
Параметр CABAC формата : Да
Параметр ReFrames формата : 16 кадров
Идентификатор кодека : V_MPEG4/ISO/AVC
Продолжительность : 2 ч. 9 м.
Битрейт : 6407 Кбит/сек
Ширина : 1280 пикселей
Высота : 532 пикселя
Соотношение сторон : 2,40:1
Частота кадров : 23,976 кадра/сек
Цветовое пространство : YUV
Субдискретизация насыщенности : 4:2:0
Битовая глубина : 8 бит
Тип развёртки : Прогрессивная
Бит/(Пиксели*Кадры) : 0.392
Размер потока : 5,67 Гбайт (75%)
Заголовок : Release for HDClub
Библиотека кодирования : x264 core 60 r877M c74a8e2
Настройки программы : cabac=1 / ref=16 / deblock=1:-3:-3 / analyse=0x3:0x133 / me=umh / subme=7 / me-prepass=0 / brdo=1 / mixed_ref=1 / me_range=45 / chroma_me=1 / trellis=0 / 8x8dct=1 / cqm=2 / deadzone=8,8 / chroma_qp_offset=0 / threads=6 / nr=0 / decimate=1 / mbaff=0 / fgo=8 / bframes=16 / b_pyramid=1 / b_adapt=1 / b_bias=0 / direct=3 / wpredb=1 / bime=1 / keyint=250 / keyint_min=25 / scenecut=40(pre) / rc=2pass / bitrate=6407 / ratetol=1.0 / rceq='blurCplx^(1-qComp)' / qcomp=1.00 / qpmin=10 / qpmax=51 / qpstep=4 / cplxblur=20.0 / qblur=0.5 / ip_ratio=1.40 / pb_ratio=1.16 / aq=2:0.80
Язык : English
Default : Да
Forced : Нет

Аудио #1
Идентификатор : 2
Формат : AC-3
Формат/Информация : Audio Coding 3
Расширение режима : CM (complete main)
Параметр Endianness формата : Big
Идентификатор кодека : A_AC3
Продолжительность : 2 ч. 9 м.
Вид битрейта : Постоянный
Битрейт : 384 Кбит/сек
Каналы : 6 каналов
Расположение каналов : Front: L C R, Side: L R, LFE
Частота : 48,0 КГц
Битовая глубина : 16 бит
Метод сжатия : С потерями
Размер потока : 357 Мбайт (5%)
Заголовок : AC3 5.1 384 Kbps Дубляж
Язык : Russian
Default : Да
Forced : Нет

Аудио #2
Идентификатор : 3
Формат : DTS
Формат/Информация : Digital Theater Systems
Идентификатор кодека : A_DTS
Продолжительность : 2 ч. 9 м.
Вид битрейта : Постоянный
Битрейт : 755 Кбит/сек
Каналы : 6 каналов
Расположение каналов : Front: L C R, Side: L R, LFE
Частота : 48,0 КГц
Битовая глубина : 24 бит
Метод сжатия : С потерями
Размер потока : 701 Мбайт (9%)
Заголовок : DTS 5.1 768 Kbps Одноголосый закадровый - Ю.Живов
Язык : Russian
Default : Нет
Forced : Нет

Аудио #3
Идентификатор : 4
Формат : AC-3
Формат/Информация : Audio Coding 3
Расширение режима : CM (complete main)
Параметр Endianness формата : Big
Идентификатор кодека : A_AC3
Продолжительность : 2 ч. 9 м.
Вид битрейта : Постоянный
Битрейт : 640 Кбит/сек
Каналы : 6 каналов
Расположение каналов : Front: L C R, Side: L R, LFE
Частота : 48,0 КГц
Битовая глубина : 16 бит
Метод сжатия : С потерями
Размер потока : 594 Мбайт (8%)
Заголовок : DD-EX 5.1 640 Kbps
Язык : English
Default : Нет
Forced : Нет

Аудио #4
Идентификатор : 5
Формат : Vorbis
Параметр Floor формата : 1
Идентификатор кодека : A_VORBIS
Продолжительность : 2 ч. 9 м.
Вид битрейта : Постоянный
Битрейт : 64,0 Кбит/сек
Минимальный битрейт : 64,0 Кбит/сек
Каналы : 2 канала
Частота : 48,0 КГц
Метод сжатия : С потерями
Размер потока : 59,4 Мбайт (1%)
Заголовок : Commentary 1
Библиотека кодирования : libVorbis 1.1.1/1.1.2 (UTC 2005-03-04)
Язык : English
Default : Нет
Forced : Нет

Аудио #5
Идентификатор : 6
Формат : Vorbis
Параметр Floor формата : 1
Идентификатор кодека : A_VORBIS
Продолжительность : 2 ч. 9 м.
Вид битрейта : Постоянный
Битрейт : 64,0 Кбит/сек
Минимальный битрейт : 64,0 Кбит/сек
Каналы : 2 канала
Частота : 48,0 КГц
Метод сжатия : С потерями
Размер потока : 59,4 Мбайт (1%)
Заголовок : Commentary 2
Библиотека кодирования : libVorbis 1.1.1/1.1.2 (UTC 2005-03-04)
Язык : English
Default : Нет
Forced : Нет

Аудио #6
Идентификатор : 7
Формат : Vorbis
Параметр Floor формата : 1
Идентификатор кодека : A_VORBIS
Продолжительность : 2 ч. 9 м.
Вид битрейта : Постоянный
Битрейт : 64,0 Кбит/сек
Минимальный битрейт : 64,0 Кбит/сек
Каналы : 2 канала
Частота : 48,0 КГц
Метод сжатия : С потерями
Размер потока : 59,4 Мбайт (1%)
Заголовок : Commentary 3
Библиотека кодирования : libVorbis 1.1.1/1.1.2 (UTC 2005-03-04)
Язык : English
Default : Нет
Forced : Нет

Текст #1
Идентификатор : 8
Формат : UTF-8
Идентификатор кодека : S_TEXT/UTF8
Идентификатор кодека/Информация : UTF-8 Plain Text
Язык : Russian
Default : Да
Forced : Нет

Текст #2
Идентификатор : 9
Формат : ASS
Идентификатор кодека : S_TEXT/ASS
Идентификатор кодека/Информация : Advanced Sub Station Alpha
Метод сжатия : Без потерь
Язык : English
Default : Нет
Forced : Нет

Текст #3
Идентификатор : 10
Формат : ASS
Идентификатор кодека : S_TEXT/ASS
Идентификатор кодека/Информация : Advanced Sub Station Alpha
Метод сжатия : Без потерь
Язык : Finnish
Default : Нет
Forced : Нет

Текст #4
Идентификатор : 11
Формат : ASS
Идентификатор кодека : S_TEXT/ASS
Идентификатор кодека/Информация : Advanced Sub Station Alpha
Метод сжатия : Без потерь
Язык : French
Default : Нет
Forced : Нет

Текст #5
Идентификатор : 12
Формат : ASS
Идентификатор кодека : S_TEXT/ASS
Идентификатор кодека/Информация : Advanced Sub Station Alpha
Метод сжатия : Без потерь
Язык : German
Default : Нет
Forced : Нет

Текст #6
Идентификатор : 13
Формат : ASS
Идентификатор кодека : S_TEXT/ASS
Идентификатор кодека/Информация : Advanced Sub Station Alpha
Метод сжатия : Без потерь
Язык : Italian
Default : Нет
Forced : Нет

Текст #7
Идентификатор : 14
Формат : ASS
Идентификатор кодека : S_TEXT/ASS
Идентификатор кодека/Информация : Advanced Sub Station Alpha
Метод сжатия : Без потерь
Язык : Portuguese
Default : Нет
Forced : Нет

Текст #8
Идентификатор : 15
Формат : ASS
Идентификатор кодека : S_TEXT/ASS
Идентификатор кодека/Информация : Advanced Sub Station Alpha
Метод сжатия : Без потерь
Язык : Romanian
Default : Нет
Forced : Нет

Текст #9
Идентификатор : 16
Формат : ASS
Идентификатор кодека : S_TEXT/ASS
Идентификатор кодека/Информация : Advanced Sub Station Alpha
Метод сжатия : Без потерь
Язык : Spanish
Default : Нет
Forced : Нет
Свернуть
"Знаете ли Вы, что..."
  • Для съёмок фильма была использована «Леди Грейс», представляющая собой практически точную копию «Андреа Гали». По завершении съёмочного процесса «Леди Грейс» была куплена одним из бостонских ресторанов Legal Sea Foods и в настоящее время судно стоит на причале в Глостере, став плавучим мемориалом в память рыбаков, отдавших свои жизни на море.
Свернуть
Скриншоты

Изображение
Изображение
Изображение
Изображение
Изображение
Изображение
Свернуть
Не в сети
Профиль  
Начать новую темуОтветить на тему  [ 1 сообщение ] 
Вы не можете начинать темы
Вы не можете отвечать на сообщения
Вы не можете редактировать свои сообщения
Вы не можете удалять свои сообщения