Правила форума

  • В этом разделе создание новых тем Запрещено.
  • Для создания новых тем пользуйтесь Корневым разделом DVD и HD фильмы.
Начать новую темуОтветить на тему  [ 1 сообщение ] 
Торрент файл
Размер: 12.18 GB • Зарегистрирован: 3 года 11 месяцев • Статус: Проверено
Скачан: 17 раз • Желающих скачать: 0 • Поблагодарили: 10 раз
 Раздают: 0  |  0 KB/s  ]   Качают: 0  |  0 KB/s  ] 
 Полного источника не было 3 года 2 месяца 
Сообщения
 Добавлено: 2012-12-14 11:16
Top-releaser
Аватара пользователя
Стаж: 6 лет 7 месяцев
Сообщений: 2078
Спасибок: 3230
Лайков: 9
Изображение

Идеальный шторм
The Perfect Storm


Год выпуска: 2000
Страна: США
Слоган: «Почувствуй его ярость»
Жанр: боевик, триллер, драма, приключения
Продолжительность: 02:09:49
Перевод: Профессиональный (полное дублирование)
Режиссер: Вольфганг Петерсен
Сценарий: Уильям Д. Уиттлиф, Себастьян Юнгер
Продюсер: Гэйл Кац, Вольфганг Петерсен, Паула Вайнштейн, Алан Б. Кертис, Дункан Хендерсон
Оператор: Джон Сил
Композитор: Джеймс Хорнер
В ролях: Джордж Клуни, Владимир Вихров, Марк Уолберг, Борис Шувалов, Дайан Лэйн, Ольга Зверева, Джон Си Райли, Юрий Маляров, Уильям Фихтнер, Александр Груздев, Джон Хоукс, Вячеслав Баранов
Бюджет: $140 000 000
Сборы в США: $182 618 434
Сборы в России: $1 360 000
Сборы в мире: $328 718 434
Мировая премьера: 26 июня 2000
Релиз на DVD: 31 мая 2012, «CP Дистрибуция»
Описание: Волны Атлантики вздымаются на 100-футовую высоту. Завывающий ветер невиданной силы. Хэллоуин 1991 года. Стихия наступает на трех фронтах, и один из них - ураган «Грейс» - поднимает сильнейший в истории человечества шторм.
Раздача группы: Изображение

Изображение User Rating: 7.498 (10 290)
Изображение User Rating: 6.30 (88 973)
MPAA: PG-13 - Детям до 13 лет просмотр не желателен
Качество: BDRip, 1080p
Формат: Matroska
Видео: AVC; 1920x800 (2.40:1); 9619 Kbps; 23,976 fps; 0,261 bit/pixel
Аудио №1: Russian; AC3; 384 Kbps; CBR; 6 ch - Дубляж
Аудио №2: Russian; DTS; 754 Kbps; CBR; 6 ch; 24 bit - одноголосый Ю. Живов
Аудио №3: English; AC3; 640 Kbps; CBR; 6 ch
Аудио №4: English; FLAC; 1711 Kbps; 6 ch
- отдельным файлом
Субтитры: English, Russian

MediaInfo
Общее
Уникальный идентификатор : 237029934115755405558679776614402535687 (0xB2524E0641AA593AA862C5A0462CB107)
Полное имя : Z:\WWW\TR-Downloads\Perfect.Storm.2000.BDRip.1080p[R.G.Daredevil]\perfect.storm.2000.BDRip.1080p.Rus.Eng.Sub.mkv
Формат : Matroska
Версия формата : Version 2
Размер файла : 10,5 Гбайт
Продолжительность : 2 ч. 9 м.
Общий поток : 11,6 Мбит/сек
Название фильма : The Perfect Storm (2000) BDRip by GreenRay
Дата кодирования : UTC 2009-05-05 16:01:28
Программа кодирования : mkvmerge v2.7.0 ('Do It Again') built on Apr 15 2009 00:27:10
Библиотека кодирования : libebml v0.7.7 + libmatroska v0.8.1

Видео
Идентификатор : 1
Формат : AVC
Формат/Информация : Advanced Video Codec
Профиль формата : High@L4.1
Параметр CABAC формата : Да
Параметр ReFrames формата : 4 кадра
Идентификатор кодека : V_MPEG4/ISO/AVC
Продолжительность : 2 ч. 9 м.
Битрейт : 9850 Кбит/сек
Ширина : 1920 пикселей
Высота : 800 пикселей
Соотношение сторон : 2,40:1
Частота кадров : 23,976 кадра/сек
Цветовое пространство : YUV
Субдискретизация насыщенности : 4:2:0
Битовая глубина : 8 бит
Тип развёртки : Прогрессивная
Бит/(Пиксели*Кадры) : 0.267
Размер потока : 8,72 Гбайт (83%)
Библиотека кодирования : x264 core 67 r1145M d2e1e1c
Настройки программы : cabac=1 / ref=4 / deblock=1:-2:-1 / analyse=0x3:0x113 / me=umh / subme=9 / psy_rd=0.9:0.3 / mixed_ref=1 / me_range=32 / chroma_me=1 / trellis=2 / 8x8dct=1 / cqm=0 / deadzone=21,11 / chroma_qp_offset=-4 / threads=6 / nr=0 / decimate=0 / mbaff=0 / bframes=5 / b_pyramid=1 / b_adapt=2 / b_bias=0 / direct=3 / wpredb=1 / keyint=250 / keyint_min=25 / scenecut=40 / rc=2pass / bitrate=9850 / ratetol=1.0 / qcomp=0.60 / qpmin=10 / qpmax=51 / qpstep=4 / cplxblur=20.0 / qblur=0.5 / vbv_maxrate=50000 / vbv_bufsize=50000 / ip_ratio=1.40 / pb_ratio=1.30 / aq=1:1.00
Язык : English
Default : Да
Forced : Нет

Аудио #1
Идентификатор : 2
Формат : AC-3
Формат/Информация : Audio Coding 3
Расширение режима : CM (complete main)
Параметр Endianness формата : Big
Идентификатор кодека : A_AC3
Продолжительность : 2 ч. 9 м.
Вид битрейта : Постоянный
Битрейт : 384 Кбит/сек
Каналы : 6 каналов
Расположение каналов : Front: L C R, Side: L R, LFE
Частота : 48,0 КГц
Битовая глубина : 16 бит
Метод сжатия : С потерями
Размер потока : 357 Мбайт (3%)
Заголовок : DD 5.1 @ 384 Kbps DUB
Язык : Russian
Default : Да
Forced : Нет

Аудио #2
Идентификатор : 3
Формат : DTS
Формат/Информация : Digital Theater Systems
Идентификатор кодека : A_DTS
Продолжительность : 2 ч. 9 м.
Вид битрейта : Постоянный
Битрейт : 755 Кбит/сек
Каналы : 6 каналов
Расположение каналов : Front: L C R, Side: L R, LFE
Частота : 48,0 КГц
Битовая глубина : 24 бит
Метод сжатия : С потерями
Размер потока : 701 Мбайт (6%)
Заголовок : DTS 768 Kbps Zhivov
Язык : Russian
Default : Нет
Forced : Нет

Аудио #3
Идентификатор : 4
Формат : AC-3
Формат/Информация : Audio Coding 3
Расширение режима : CM (complete main)
Параметр Endianness формата : Big
Идентификатор кодека : A_AC3
Продолжительность : 2 ч. 9 м.
Вид битрейта : Постоянный
Битрейт : 640 Кбит/сек
Каналы : 6 каналов
Расположение каналов : Front: L C R, Side: L R, LFE
Частота : 48,0 КГц
Битовая глубина : 16 бит
Метод сжатия : С потерями
Размер потока : 594 Мбайт (6%)
Заголовок : DD 5.1 @ 640 Kbps Original
Язык : enm
Default : Нет
Forced : Нет

Текст #1
Идентификатор : 5
Формат : ASS
Идентификатор кодека : S_TEXT/ASS
Идентификатор кодека/Информация : Advanced Sub Station Alpha
Метод сжатия : Без потерь
Заголовок : English
Язык : English
Default : Да
Forced : Нет

Текст #2
Идентификатор : 6
Формат : ASS
Идентификатор кодека : S_TEXT/ASS
Идентификатор кодека/Информация : Advanced Sub Station Alpha
Метод сжатия : Без потерь
Заголовок : Russian
Язык : Russian
Default : Нет
Forced : Нет

Текст #3
Идентификатор : 7
Формат : UTF-8
Идентификатор кодека : S_TEXT/UTF8
Идентификатор кодека/Информация : UTF-8 Plain Text
Заголовок : Russian [SRT]
Язык : Russian
Default : Нет
Forced : Нет

Текст #4
Идентификатор : 8
Формат : UTF-8
Идентификатор кодека : S_TEXT/UTF8
Идентификатор кодека/Информация : UTF-8 Plain Text
Заголовок : English [SRT]
Язык : English
Default : Нет
Forced : Нет

Меню
00:00:00.000 : en:Chapter 1
00:02:44.633 : en:Chapter 2
00:07:56.467 : en:Chapter 3
00:10:34.467 : en:Chapter 4
00:13:38.134 : en:Chapter 5
00:16:54.968 : en:Chapter 6
00:21:16.802 : en:Chapter 7
00:23:46.302 : en:Chapter 8
00:26:46.969 : en:Chapter 9
00:32:40.302 : en:Chapter 10
00:36:39.136 : en:Chapter 11
00:41:13.336 : en:Chapter 12
00:44:41.303 : en:Chapter 13
00:48:23.469 : en:Chapter 14
00:50:58.303 : en:Chapter 15
00:55:11.137 : en:Chapter 16
00:56:50.637 : en:Chapter 17
01:00:52.471 : en:Chapter 18
01:03:21.138 : en:Chapter 19
01:05:41.805 : en:Chapter 20
01:09:23.805 : en:Chapter 21
01:14:42.971 : en:Chapter 22
01:19:43.304 : en:Chapter 23
01:22:32.470 : en:Chapter 24
01:25:32.470 : en:Chapter 25
01:29:02.636 : en:Chapter 26
01:31:54.636 : en:Chapter 27
01:34:25.470 : en:Chapter 28
01:38:26.304 : en:Chapter 29
01:40:40.971 : en:Chapter 30
01:42:09.471 : en:Chapter 31
01:44:06.804 : en:Chapter 32
01:47:26.471 : en:Chapter 33
01:50:07.838 : en:Chapter 34
01:53:05.138 : en:Chapter 35
01:56:02.972 : en:Chapter 36
01:57:03.005 : en:Chapter 37
02:00:29.305 : en:Chapter 38
02:02:20.005 : en:Chapter 39
Свернуть
"Знаете ли Вы, что..."
  • Для съёмок фильма была использована «Леди Грейс», представляющая собой практически точную копию «Андреа Гали». По завершении съёмочного процесса «Леди Грейс» была куплена одним из бостонских ресторанов Legal Sea Foods и в настоящее время судно стоит на причале в Глостере, став плавучим мемориалом в память рыбаков, отдавших свои жизни на море.
Свернуть
Скриншоты

Изображение
Изображение
Изображение
Изображение
Изображение
Свернуть
Не в сети
Профиль  
Начать новую темуОтветить на тему  [ 1 сообщение ] 
Вы не можете начинать темы
Вы не можете отвечать на сообщения
Вы не можете редактировать свои сообщения
Вы не можете удалять свои сообщения