Правила форума

  • В этом разделе создание новых тем Запрещено.
  • Для создания новых тем пользуйтесь Корневым разделом DVD и HD фильмы.
Начать новую темуОтветить на тему  [ Сообщений: 8 ] 
Торрент файл
Размер: 16.66 GB • Зарегистрирован: 5 лет 3 месяца • Статус: Проверено
Скачан: 249 раз • Желающих скачать: 0 • Поблагодарили: 78 раз
 Раздают: 1  |  0 KB/s  ]   Качают: 0  |  0 KB/s  ] 
Сообщения
 Добавлено: 2011-08-10 19:02
Top-releaser
Аватара пользователя
Стаж: 8 лет 9 месяцев
Сообщений: 479
Спасибок: 20187
Лайков: 16
Идентификация Борна, Превосходство Борна, Ультиматум Борна

Изображение

2002 - Идентификация Борна / The Bourne Identity

Идентификация Борна

«Wer ist Jason Bourne?»

Изображение

Год выпуска: 2002
Страна: Изображение США, Изображение Германия, Изображение Чехия
Жанр: Боевик, триллер, детектив
Продолжительность: 01:58:17
Перевод: Профессиональный (дублированный) + Оригинал
Cубтитры: Русские (полные), русские (надписи), английские (ASS)

Режиссёр: Даг Лиман / Doug Liman

В ролях: Мэтт Дэймон, Франка Потенте, Крис Купер, Клайв Оуэн, Брайан Кокс, Адеуэйл Акиннуйе-Агбайе, Гэбриел Манн, Уолт Гоггинс, Джош Хэмилтон, Джулия Стайлз

Описание: Команда итальянского рыболовецкого судна находит в водах Средиземного моря тело мужчины. У него два пулевых ранения в спине и имплантированный в бедро микрофильм, помеченный номером швейцарского банка. Когда незнакомец приходит в себя, оказывается, что он не помнит кто он, и что с ним случилось, однако он может говорить на нескольких языках и обладает другими необычными способностями.

Получив в Цюрихе деньги с указанного банковского счета, он узнает свое имя Джейсон Борн. Но настоящее это его имя или нет? Пытаясь восстановить свое прошлое, он находит свой адрес в Париже, но вместе с этим понимает, что отслеживается убийцей. Борн уговаривает немецкую студентку Мэри отвезти его в Париж, чтобы выяснить все о своем прошлом и понять, кто хочет его убить…


Качество: BDRip 720p
Формат: MKV

Видео: 1280x544, 23.976 fps, ~4640 kbps

Аудио 1: AC3, 5.1, 640 kbps, 48 kHz [Дубляж]
Аудио 2: DTS, 5.1, 1536 kbps, 48 kHz [Оригинал]
Изображение
Знаете ли Вы что....

Изображение
Изображение

* По графику выход картины был намечен на июнь 2001 года. Задержка была обусловлена желанием режиссера Дага Лимана переснять некоторые сцены фильма. В частности, знаменитую сцену погони в середине фильма.
* Режиссер Даг Лиман не разрешил сценаристу Тони Гилрою прочитать одноименную повесть «Идентификация Борна», по мотивам которой и снимался кинофильм. Вместо этого Даг подготовил набросок сценария, с которым и пришлось возиться господину Гилрою.
* Персонаж Клайва Оуэна в картине катается на автомобиле марки BMW. Любопытно, что Клайв является рекламным лицом BMW - на его счету несколько рекламных роликов.
* Брайан Кокс (Уорд Эббот) уже играл в фильме об убийце, страдающем потерей памяти после перенесенной травмы, в картине 1996 года «Долгий поцелуй на ночь».
* Один из редких фильмов, не обремененных нагрузкой в виде начальных титров.
* Большинство статистов, американских солдат при американском посольстве в Цюрихе, были настоящими морскими пехотинцами, отправленными в Европу по требованию продюсера Фрэнка Маршалла. Разумеется, специальной униформой снабжать их не потребовалось. Вместе с режиссером они работали над диалогами (которые все-таки выкинули из фильма), и разрабатывали тактические схемы для съемок операции в посольстве.
* Композитор Картер Барвелл активно работал над звуковой дорожкой к кинофильму, однако из-за задержки релиза был вынужден покинуть проект в 2001 году.
* В специальном издании фильма на DVD для второго региона отсутствует титр с названием картины как в театральной, так и альтернативной версиях. В начале фильма зритель видит только логотип студии Universal, однако титры появляются только в концовке картины, но в них также отсутствует титр с названием фильма.
* В начале фильма, Джейсон Борн смотрит на себя в зеркало и говорит на голландском: «Weet je wie ik ben? Hou dan godverdomme op met dat gezeik en zeg het me», — что означает: «Ты знаешь, кто я? Тогда хватит нести чушь и скажи мне».
* Винтовка Профессора — Swiss SIG 550 Sniper.
* Пистолет, который Борн обнаруживает в ячейке банка в Цюрихе, — SIG-Sauer SIG Pro SP2009 (9mm).
* В первой версии сценария, Мари была американской, её фамилия — Парселл, и у неё были зеленые волосы. В фильме, она — немка, её фамилия — Кройц, и она несколько раз меняет цвет своих волос по ходу действия картины.
* Изначально фильм должен был выйти на экраны 7 сентября 2001 года. Но когда авторы картины решили переделать концовку, премьеру отодвинули на 31 мая 2002 года. После чего дата выхода изменилась еще раз на 14 июня 2002.
* Роберт Ладлэм, автор книг о Джейсоне Борне, умер во время постпродакшна, 12 марта 2001 года.
* Роль Джейсона Борна была предложена Брэду Питту, однако он предпочел сыграть в «Шпионских играх» (2001).
* Съёмки сцен с участием Брайана Кокса и Криса Купера заняли около пяти дней. Однако позднее оба актера вновь появились на съёмочной площадке, для того чтобы принять участие в пересъёмках.
* Джуди Парфитт сыграла психолога, однако сцена с её участием была вырезана из фильма. Данный эпизод можно посмотреть на DVD в разделе «Удаленные сцены».
* Техника рукопашного боя Джейсона Борна сочетает в себе Крав Магу и Эскриму/Кали.
* Одним из авторов сценария, датированного 2 сентября 2000, числится Дэвид Селф. Однако в готовом фильме его имени нет среди сценаристов.
* Количество трупов: 8
* Средняя продолжительность кадра — 4 секунды.
* При детальном рассмотрении загранпаспорта «героя-россиянина» взору зрителя предстает беспорядочный набор кириллических знаков. Если имя и фамилия героя по-английски написаны как Foma Kiniaev, то в русском варианте он звучит так: Ащьф Лштшфум. Похоже, создатели картины решили не утруждать себя переводом, а попросту взяли клавиатуру с русскими буквами и нажали на те же клавиши, что и на латинице. Кроме того, в паспорте что-то приписано по-испански. Там же есть слово «Российская Федерация», которая выглядит как «РоссийЖая».
* Среди предметов, которые Борн находит в своём депозитном ящике в Гемайнтшафтбанке в Цюрихе — кредитная карточка Американ Экспресс и довольно редкая карта постоянного клиента Air France Club 2000. Она выдаётся только менеджменту компании Air France, и корпоративным клиентам, которые распоряжаются миллионными бюджетами на перелёты.

Свернуть
MediaInfo

Общее
Уникальный идентификатор : 214649922991606109602298867456878143566 (0xA17C1248E890F5DE8DA391C37B6D684E)
Полное имя : D:\Cinema\The.Bourne.Trilogy\The.Bourne.Identity\The.Bourne.Identity.2002.BDRip.720p.rus.eng.srt.mkv
Формат : Matroska
Размер файла : 5,61 Гбайт
Продолжительность : 1 ч. 58 м.
Общий поток : 6790 Кбит/сек
Дата кодирования : UTC 2010-01-05 16:44:32
Программа кодирования : mkvmerge v3.0.0 ('Hang up your Hang-Ups') built on Dec 12 2009 15:20:35
Библиотека кодирования : libebml v0.7.9 + libmatroska v0.8.1

Видео
Идентификатор : 1
Формат : AVC
Формат/Информация : Advanced Video Codec
Профиль формата : High@L4.1
Параметр CABAC формата : Да
Параметр ReFrames формата : 11 кадры
Идентификатор кодека : V_MPEG4/ISO/AVC
Продолжительность : 1 ч. 58 м.
Битрейт : 4640 Кбит/сек
Ширина : 1280 пикс.
Высота : 544 пикс.
Соотношение сторон : 2,35:1
Частота кадров : 23,976 кадр/сек
Цветовое пространство : YUV
Подвыборка цветности : 4:2:0
Битовая глубина : 8 бит
Тип развёртки : Прогрессивная
Бит/(Пиксели*Кадры) : 0.278
Размер потока : 3,72 Гбайт (66%)
Библиотека кодирования : x264 core 80 r1376 3feaec2
Настройки программы : cabac=1 / ref=11 / deblock=1:-3:-3 / analyse=0x3:0x113 / me=umh / subme=10 / psy=1 / psy_rd=1.0:0.0 / mixed_ref=1 / me_range=48 / chroma_me=1 / trellis=2 / 8x8dct=1 / cqm=0 / deadzone=21,11 / fast_pskip=0 / chroma_qp_offset=-2 / threads=6 / sliced_threads=0 / nr=0 / decimate=1 / mbaff=0 / constrained_intra=0 / bframes=6 / b_pyramid=2 / b_adapt=2 / b_bias=0 / direct=1 / wpredb=1 / wpredp=2 / keyint=250 / keyint_min=25 / scenecut=40 / rc_lookahead=60 / rc=2pass / mbtree=1 / bitrate=4640 / ratetol=1.0 / qcomp=0.60 / qpmin=10 / qpmax=51 / qpstep=4 / cplxblur=20.0 / qblur=0.5 / vbv_maxrate=50000 / vbv_bufsize=62500 / ip_ratio=1.40 / aq=1:1.00

Аудио #1
Идентификатор : 2
Формат : AC-3
Формат/Информация : Audio Coding 3
Расширение режима : CM (complete main)
Идентификатор кодека : A_AC3
Продолжительность : 1 ч. 58 м.
Вид битрейта : Постоянный
Битрейт : 640 Кбит/сек
Канал(ы) : 6 канала(ов)
Расположение каналов : Front: L C R, Side: L R, LFE
Частота : 48,0 КГц
Битовая глубина : 16 бит
Метод сжатия : С потерями
Размер потока : 541 Мбайт (9%)
Язык : Russian

Аудио #2
Идентификатор : 3
Формат : DTS
Формат/Информация : Digital Theater Systems
Идентификатор кодека : A_DTS
Продолжительность : 1 ч. 58 м.
Вид битрейта : Постоянный
Битрейт : 1510 Кбит/сек
Канал(ы) : 6 канала(ов)
Расположение каналов : Front: L C R, Side: L R, LFE
Частота : 48,0 КГц
Битовая глубина : 24 бит
Метод сжатия : С потерями
Размер потока : 1,25 Гбайт (22%)
Язык : English

Текст #1
Идентификатор : 4
Формат : UTF-8
Идентификатор кодека : S_TEXT/UTF8
Идентификатор кодека/Информация : UTF-8 Plain Text
Заголовок : full
Язык : Russian

Текст #2
Идентификатор : 5
Формат : UTF-8
Идентификатор кодека : S_TEXT/UTF8
Идентификатор кодека/Информация : UTF-8 Plain Text
Язык : Russian

Текст #3
Идентификатор : 6
Формат : ASS
Идентификатор кодека : S_TEXT/ASS
Идентификатор кодека/Информация : Advanced Sub Station Alpha
Метод сжатия : Без потерь
Язык : English

Свернуть
Скриншоты
Изображение
Изображение
Изображение
Изображение
Изображение
Изображение
Свернуть
Раздача:

Изображение

Свернуть
2004 - Превосходство Борна / The Bourne Supremacy

Превосходство Борна

«Они украли у него жизнь. Он хочет ее вернуть.»

Изображение

Год выпуска: 2004
Страна: Изображение США, Изображение Германия
Жанр: Боевик, триллер, детектив
Продолжительность: 1:48:22
Перевод: Профессиональный (дублированный) + Оригинал
Cубтитры: Русские (полные), русские (надписи), английские (ASS)

Режиссёр: Пол Гринграсс / Paul Greengrass

В ролях: Мэтт Дэймон, Франка Потенте, Брайан Кокс, Джулия Стайлз, Карл Урбан, Гэбриел Манн, Джоан Аллен, Мартон Чокаш, Том Гэллоп, Джон Бедфорд Ллойд

Описание: Суперагент ЦРУ Джейсон Борн вновь оказывается подставленным и вынужден помимо возложенной на него задачи государственного значения спасать себя, а заодно и других небезразличных ему людей.

В процессе выполнения миссии судьба заносит Борна в Россию, где его ждет множество характерных для страны, но непривычных западному человеку сюрпризов.


Качество: BDRip 720p
Формат: MKV

Видео: 1280x544, 23.976 fps, ~5107 kbps

Аудио 1: AC3, 5.1, 640 kbps, 48 kHz [Дубляж]
Аудио 2: DTS, 5.1, 1536 kbps, 48 kHz [Оригинал]
Изображение
Знаете ли Вы что....

Изображение
Изображение

* Брайан Хелджлэнд доводил сценарий до ума, однако его имя не упоминается в титрах.
* Для того чтобы достичь эффекта документального кино, подавляющая часть фильма была снята ручными камерами. Режиссер также постарался избежать использования компьютерной графики. Поэтому практически все трюки в фильме выполнялись вживую, без применения спецэффектов.
* Различные приспособления, которые использует Борн на протяжении фильма, существуют на самом деле, и большинство из них можно купить в обычных магазинах.
* Шариковая ручка Борна — Rotring 600.
* Музыка, которую можно услышать в холле отеля «Hotel Brecker», — четвертая баллада Шопена.
* При съёмках сцены допроса в консульстве, Мэтт Дэймон случайно послал в нокаут Тима Гриффина, сыгравшего Джона Невинса.
* Изначально фильм должен был закончиться сценой, в которой Борн рассказывает дочери Нески о смерти её родителей. Однако на тест-просмотрах зрители посчитали такую концовку незаконченной и слишком размытой. Поэтому для фильма были сняты дополнительные сцены, где Борн разговаривает по телефону с Лэнди, и она говорит ему его настоящее имя. Дополнительные съёмки завершились всего за несколько недель до премьеры фильма.
* По большому счету фильм снимался в обратном порядке. Это означает, что съёмки в Москве прошли первыми, а в последнюю очередь снимали сцены на Гоа.
* По словам сценариста фильма Тони Гилроя, он постарался сделать не адаптацию книги для киноэкрана, а её переосмысление.
* В доме в Мюнхене, Джейсон Борн использует в качестве оружия свернутый журнал. Тактика его боя происходит из вида филиппинских единоборств — Эскрима. Данный стиль предполагает активное использование предметов из повседневного обихода, включая шариковые ручки (как это показано в «Идентификации Борна») и свернутые в трубочку газеты.
* Пистолет, которым пользуется Борн в Москве, — Sig Sauer PRO.
* Пистолет Кирилла — Walther P99.
* Количество трупов: 9.
* По первоначальной версии сценария, Борн должен был провести значительное время в индийской тюрьме.
* Сцена погони по московским улицам получила в 2005 году мировую премию в области трюков Таурус (англ. Taurus World Stunt Awards) в номинации «лучшая машина» (англ. Best Vehicle). Руководил постановкой этой автомобильной погони российский каскадер Виктор Иванов.
* Когда Борн звонит Памеле Ленди в Берлине, слышен голос, говорящий «Мне нужно 90 секунд, чтобы определить его положение». Борн прервал диалог спустя 88 секунд.

Свернуть
MediaInfo

Общее
Уникальный идентификатор : 173625261299466831611320418929431539214 (0x829F024CC45476AE93C8A0270B1FEE0E)
Полное имя : D:\Cinema\The.Bourne.Trilogy\The.Bourne.Supremacy\The.Bourne.Supremacy.2004.BDRip.720pRus.Eng.srt.mkv
Формат : Matroska
Размер файла : 5,50 Гбайт
Продолжительность : 1 ч. 48 м.
Общий поток : 7258 Кбит/сек
Дата кодирования : UTC 2010-01-11 08:58:14
Программа кодирования : mkvmerge v3.0.0 ('Hang up your Hang-Ups') built on Dec 12 2009 15:20:35
Библиотека кодирования : libebml v0.7.9 + libmatroska v0.8.1

Видео
Идентификатор : 1
Формат : AVC
Формат/Информация : Advanced Video Codec
Профиль формата : High@L4.1
Параметр CABAC формата : Да
Параметр ReFrames формата : 11 кадры
Идентификатор кодека : V_MPEG4/ISO/AVC
Продолжительность : 1 ч. 48 м.
Битрейт : 5107 Кбит/сек
Ширина : 1280 пикс.
Высота : 544 пикс.
Соотношение сторон : 2,35:1
Частота кадров : 23,976 кадр/сек
Цветовое пространство : YUV
Подвыборка цветности : 4:2:0
Битовая глубина : 8 бит
Тип развёртки : Прогрессивная
Бит/(Пиксели*Кадры) : 0.306
Размер потока : 3,76 Гбайт (68%)
Библиотека кодирования : x264 core 80 r1376 3feaec2
Настройки программы : cabac=1 / ref=11 / deblock=1:-3:-3 / analyse=0x3:0x113 / me=umh / subme=10 / psy=1 / psy_rd=1.0:0.0 / mixed_ref=1 / me_range=48 / chroma_me=1 / trellis=2 / 8x8dct=1 / cqm=0 / deadzone=21,11 / fast_pskip=0 / chroma_qp_offset=-2 / threads=6 / sliced_threads=0 / nr=0 / decimate=1 / mbaff=0 / constrained_intra=0 / bframes=6 / b_pyramid=2 / b_adapt=2 / b_bias=0 / direct=1 / wpredb=1 / wpredp=2 / keyint=250 / keyint_min=25 / scenecut=40 / rc_lookahead=60 / rc=2pass / mbtree=1 / bitrate=5107 / ratetol=1.0 / qcomp=0.60 / qpmin=10 / qpmax=51 / qpstep=4 / cplxblur=20.0 / qblur=0.5 / vbv_maxrate=50000 / vbv_bufsize=62500 / ip_ratio=1.40 / aq=1:1.00

Аудио #1
Идентификатор : 2
Формат : AC-3
Формат/Информация : Audio Coding 3
Расширение режима : CM (complete main)
Идентификатор кодека : A_AC3
Продолжительность : 1 ч. 48 м.
Вид битрейта : Постоянный
Битрейт : 640 Кбит/сек
Канал(ы) : 6 канала(ов)
Расположение каналов : Front: L C R, Side: L R, LFE
Частота : 48,0 КГц
Битовая глубина : 16 бит
Метод сжатия : С потерями
Размер потока : 497 Мбайт (9%)
Заголовок : DUB
Язык : Russian

Аудио #2
Идентификатор : 3
Формат : DTS
Формат/Информация : Digital Theater Systems
Идентификатор кодека : A_DTS
Продолжительность : 1 ч. 48 м.
Вид битрейта : Постоянный
Битрейт : 1510 Кбит/сек
Канал(ы) : 6 канала(ов)
Расположение каналов : Front: L C R, Side: L R, LFE
Частота : 48,0 КГц
Битовая глубина : 24 бит
Метод сжатия : С потерями
Размер потока : 1,14 Гбайт (21%)
Язык : English

Текст #1
Идентификатор : 4
Формат : UTF-8
Идентификатор кодека : S_TEXT/UTF8
Идентификатор кодека/Информация : UTF-8 Plain Text
Заголовок : Full
Язык : Russian

Текст #2
Идентификатор : 5
Формат : UTF-8
Идентификатор кодека : S_TEXT/UTF8
Идентификатор кодека/Информация : UTF-8 Plain Text
Заголовок : Forced
Язык : Russian

Текст #3
Идентификатор : 6
Формат : UTF-8
Идентификатор кодека : S_TEXT/UTF8
Идентификатор кодека/Информация : UTF-8 Plain Text
Заголовок : Comment
Язык : Russian

Текст #4
Идентификатор : 7
Формат : ASS
Идентификатор кодека : S_TEXT/ASS
Идентификатор кодека/Информация : Advanced Sub Station Alpha
Метод сжатия : Без потерь
Язык : English

Свернуть
Скриншоты
Изображение
Изображение
Изображение
Изображение
Изображение
Изображение
Свернуть
Раздача:

Изображение

Свернуть
2007 - Ультиматум Борна / The Bourne Ultimatum

Ультиматум Борна

«Вспомнить все. Не прощать ничего.»

Изображение

Год выпуска: 2007
Страна: Изображение США, Изображение Германия
Жанр: Боевик, триллер, детектив
Продолжительность: 1:55:18
Перевод: Профессиональный (дублированный) + Оригинал
Cубтитры: Русские (полные), русские (надписи), английские (ASS)

Режиссёр: Пол Гринграсс / Paul Greengrass

В ролях: Мэтт Дэймон, Джулия Стайлз, Дэвид Стрэтэйрн, Скотт Гленн, Пэдди Консидайн, Эдгар Рамирез, Альберт Финни, Джоан Аллен, Том Гэллоп, Кори Джонсон

Описание: Он хотел одного — исчезнуть. Вместо этого за Борном теперь охотятся люди, которые сделали его таким, какой он есть. Он потерял память и человека, которого он любил. Но его не удается сдержать даже новому поколению профессиональных убийц. У него только одна цель: вернуться к началу и узнать кем он был, Джейсон Борн.

Он мечется от Москвы к Парижу, через Мадрид и Лондон в Танжер и Нью-Йорк, пытаясь раскрыть последние загадки своего прошлого, в то время, как правительственные агенты и Интерпол пытаются помешать ему восстановить всю картину до конца.


Качество: BDRip 720p
Формат: MKV

Видео: 1280x532, 23.976 fps, ~4737 kbps

Аудио 1: AC3, 5.1, 640 kbps, 48 kHz [Дубляж]
Аудио 2: DTS, 5.1, 1536 kbps, 48 kHz [Оригинал]
Изображение
Знаете ли Вы что....

Изображение
Изображение

* Начало фильма, а именно где Борн находится в Москве, снимали на самом деле в Берлине.
* Съемочная группа фильма насчитывала 250 человек, так что при перелетах приходилось фрахтовать отдельный самолет.
* Чтобы снять погоню на улицах Танжера, камеры подвесили на кабель, протянутый над крышами домов.
* Сцена, в которой Борн спрашивает Никки о своем прошлом снималась на шоссе к юго-западу от Мадрида.
* Съёмочной группе не удалось закрыть хотя бы ненадолго вокзал Ватерлоо, поэтому в кадре видно, что пешеходы рассматривают и показывают пальцами на съёмочную камеру.
* Среди файлов, который Борна ворует из офиса ЦРУ, есть файл ликвидированного агента, на котором стоит фото актёра Ричарда Чемберлена, исполнившего роль Борна в телепостановке 1988 года.
* Короткую погоню и аварии в центре Нью-Йорка снимали шесть недель.
* На книжной полке в кабинете Восена можно увидеть автобиографию Билла Клинтона «Моя жизнь».
* Во время сцены в нью-йоркском офисе ЦРУ на одном из компьютером можно увидеть изображение Дональда Рамсфельда.

Свернуть
MediaInfo

Общее
Уникальный идентификатор : 230426223123463818473261961008408498913 (0xAD5A79EF5B7B6E6B820165733D3512E1)
Полное имя : D:\Cinema\The.Bourne.Trilogy\The.Bourne.Ultimatum\The.Bourne.Ultimatum.2007.BDRip.720p.rus.eng.srt.mkv
Формат : Matroska
Размер файла : 5,55 Гбайт
Продолжительность : 1 ч. 55 м.
Общий поток : 6887 Кбит/сек
Дата кодирования : UTC 2010-01-05 22:29:38
Программа кодирования : mkvmerge v3.0.0 ('Hang up your Hang-Ups') built on Dec 12 2009 15:20:35
Библиотека кодирования : libebml v0.7.9 + libmatroska v0.8.1

Видео
Идентификатор : 1
Формат : AVC
Формат/Информация : Advanced Video Codec
Профиль формата : High@L4.1
Параметр CABAC формата : Да
Параметр ReFrames формата : 11 кадры
Идентификатор кодека : V_MPEG4/ISO/AVC
Продолжительность : 1 ч. 55 м.
Битрейт : 4737 Кбит/сек
Ширина : 1280 пикс.
Высота : 532 пикс.
Соотношение сторон : 2,40:1
Частота кадров : 23,976 кадр/сек
Цветовое пространство : YUV
Подвыборка цветности : 4:2:0
Битовая глубина : 8 бит
Тип развёртки : Прогрессивная
Бит/(Пиксели*Кадры) : 0.290
Размер потока : 3,71 Гбайт (67%)
Библиотека кодирования : x264 core 80 r1376 3feaec2
Настройки программы : cabac=1 / ref=11 / deblock=1:-3:-3 / analyse=0x3:0x113 / me=umh / subme=10 / psy=1 / psy_rd=0.9:0.0 / mixed_ref=1 / me_range=48 / chroma_me=1 / trellis=2 / 8x8dct=1 / cqm=0 / deadzone=21,11 / fast_pskip=0 / chroma_qp_offset=-2 / threads=6 / sliced_threads=0 / nr=0 / decimate=1 / mbaff=0 / constrained_intra=0 / bframes=6 / b_pyramid=2 / b_adapt=2 / b_bias=0 / direct=1 / wpredb=1 / wpredp=2 / keyint=250 / keyint_min=25 / scenecut=40 / rc_lookahead=60 / rc=2pass / mbtree=1 / bitrate=4737 / ratetol=1.0 / qcomp=0.60 / qpmin=10 / qpmax=51 / qpstep=4 / cplxblur=20.0 / qblur=0.5 / vbv_maxrate=50000 / vbv_bufsize=62500 / ip_ratio=1.40 / aq=1:1.00

Аудио #1
Идентификатор : 2
Формат : AC-3
Формат/Информация : Audio Coding 3
Расширение режима : CM (complete main)
Идентификатор кодека : A_AC3
Продолжительность : 1 ч. 55 м.
Вид битрейта : Постоянный
Битрейт : 640 Кбит/сек
Канал(ы) : 6 канала(ов)
Расположение каналов : Front: L C R, Side: L R, LFE
Частота : 48,0 КГц
Битовая глубина : 16 бит
Метод сжатия : С потерями
Размер потока : 528 Мбайт (9%)
Язык : Russian

Аудио #2
Идентификатор : 3
Формат : DTS
Формат/Информация : Digital Theater Systems
Идентификатор кодека : A_DTS
Продолжительность : 1 ч. 55 м.
Вид битрейта : Постоянный
Битрейт : 1510 Кбит/сек
Канал(ы) : 6 канала(ов)
Расположение каналов : Front: L C R, Side: L R, LFE
Частота : 48,0 КГц
Битовая глубина : 24 бит
Метод сжатия : С потерями
Размер потока : 1,22 Гбайт (22%)
Язык : English

Текст #1
Идентификатор : 4
Формат : UTF-8
Идентификатор кодека : S_TEXT/UTF8
Идентификатор кодека/Информация : UTF-8 Plain Text
Заголовок : full
Язык : Russian

Текст #2
Идентификатор : 5
Формат : UTF-8
Идентификатор кодека : S_TEXT/UTF8
Идентификатор кодека/Информация : UTF-8 Plain Text
Язык : Russian

Текст #3
Идентификатор : 6
Формат : ASS
Идентификатор кодека : S_TEXT/ASS
Идентификатор кодека/Информация : Advanced Sub Station Alpha
Метод сжатия : Без потерь
Язык : English

Свернуть
Награды и номинации

Изображение
Свернуть
Скриншоты
Изображение
Изображение
Изображение
Изображение
Изображение
Изображение
Свернуть
Раздача:

Изображение

Свернуть

Изображение
_________________
Изображение
Изображение
 GeNNdoSS нравится это.
Не в сети
Профиль  
 Добавлено: 2011-08-11 02:27 (спустя 7 часов)
Аватара пользователя
Стаж: 6 лет 4 месяца
Сообщений: 7
Спасибок: 53
Фильм зачет!!! Только скорости нет совсем!
Не в сети
Профиль  
 Добавлено: 2012-11-26 17:34 (спустя 1 год 3 месяца)
Аватара пользователя
Стаж: 5 лет 2 месяца
Возраст: 32
Сообщений: 92
гдеее скорость???
Не в сети
Профиль  
 Добавлено: 2012-12-10 12:04 (спустя 13 дней)
Аватара пользователя
Стаж: 4 года
Возраст: 22
Сообщений: 21
Фильмы зачетные) Кто не смотрел, советую по смотреть)
Не в сети
Профиль  
 Добавлено: 2012-12-11 10:11 (спустя 22 часа)
Top-releaser
Аватара пользователя
Стаж: 8 лет 9 месяцев
Сообщений: 211
Спасибок: 3857
Лайков: 1
эти части лучше, чем последняя, скачаю ка :)
_________________
Изображение
Не в сети
Профиль  
 Добавлено: 2012-12-13 18:19 (спустя 2 дня 8 часов)
Стаж: 6 лет 9 месяцев
Сообщений: 13
Дайте скорости, пожалуйста!!!!
Не в сети
Профиль  
 Добавлено: 2013-02-03 12:41 (спустя 1 месяц 20 дней)
Аватара пользователя
Стаж: 8 лет 6 месяцев
Сообщений: 329
Лайков: 6
Скорости ДАЙТЕ,ДАЙТЕ,ДАЙТЕ...ПОЖАЛУЙСТА!!!
Не в сети
Профиль  
 Добавлено: 2013-06-07 16:57 (спустя 4 месяца 4 дня)
Аватара пользователя
Стаж: 8 лет
Сообщений: 1389
Спасибок: 39
Лайков: 63
блин, такие объёмы с такой скоростью раздавать стыдища :za_da_va_la:
Не в сети
Профиль  
Начать новую темуОтветить на тему  [ Сообщений: 8 ] 
Вы не можете начинать темы
Вы не можете отвечать на сообщения
Вы не можете редактировать свои сообщения
Вы не можете удалять свои сообщения