Правила форума

  • В этом разделе создание новых тем Запрещено.
  • Для создания новых тем пользуйтесь Корневым разделом DVD и HD фильмы.
Начать новую темуОтветить на тему  [ Сообщений: 5 ] 
Торрент файл
Размер: 8.21 GB • Зарегистрирован: 4 года 9 месяцев • Статус: Проверено
Скачан: 33 раза • Желающих скачать: 0 • Поблагодарили: 13 раз
 Раздают: 0  |  0 KB/s  ]   Качают: 0  |  0 KB/s  ] 
 Полного источника не было 3 года 2 месяца 
Сообщения
 Добавлено: 2012-02-12 10:22
Top-releaser
Аватара пользователя
Стаж: 8 лет 1 месяц
Сообщений: 263
Спасибок: 3101

Идентификация / Identity


Слоган: «Identity is a secret. Identity is a mystery. Identity is a killer.»
Изображение


Год выпуска: 2003
Страна: США (Columbia Pictures Corporation)
Жанр: Триллер, драма, детектив
Продолжительность: 01:30:02
Перевод: Профессиональный, многоголосый
Качество: BDRip (1080p)
Формат: MKV
Видео кодек: AVC
Аудио кодек: AC3 (Dolby Digital)
Видео: AVC; 1920x800 (2.40:1); 11509 Kbps; 23,976 fps; 0,313 bpp
Аудио #1: Russian; AC3; 640 Kbps; CBR; 6 ch
Аудио #2: English; AC3; 640 Kbps; CBR; 6 ch

Режиссёр: Джеймс Мэнголд
Сценарист: Майкл Куни
Продюсер: Стюарт М. Бессер, Дикси Дж. Кэпп, Кэти Конрад
Оператор: Фидон Папамайкл
Композитор: Алан Сильвестри
В ролях: Джон Кьюсак, Рэй Лиотта, Аманда Пит, Джон Хоукс, Альфред Молина, Клеа Дювалл, Уильям Ли Скотт, Ребекка Де Морней
Описание: Бушует жуткий ливень. В поисках укрытия десять путешественников вынуждены остановиться на ночь в старом придорожном мотеле. Однако вскоре они с ужасом обнаруживают, что это место становится не спасительным укрытием, а смертельной мышеловкой.

Люди гибнут один за другим, а убийца, скрывающийся среди них, по-прежнему не вычислен. С каждым новым трупом оставшимся в живых становится все очевиднее, что их всех вместе собрала далеко не судьба, а чья-то дьявольски изощренная воля, творящая собственное правосудие…
Рейтинг MPAA: Рейтинг R ( лицам до 17 лет обязательно присутствие взрослого)
MediaInfo:
Общее
Уникальный идентификатор : 237264633499420107483584068615656918416 (0xB27F8198F2D3EF4B9099F6E5333B4D90)
Полное имя : E:\Фильмы\Идентификация.mkv
Формат : Matroska
Версия формата : Version 1
Размер файла : 8,21 Гбайт
Продолжительность : 1 ч. 30 м.
Режим общего битрейта : Переменный
Общий поток : 13,0 Мбит/сек
Дата кодирования : UTC 2008-12-28 10:30:08
Программа кодирования : mkvmerge v2.4.1 ('Use Me') built on Dec 5 2008 18:30:05
Библиотека кодирования : libebml v0.7.7 + libmatroska v0.8.1

Видео
Идентификатор : 1
Формат : AVC
Формат/Информация : Advanced Video Codec
Профиль формата : High@L4.1
Параметр CABAC формата : Да
Параметр ReFrames формата : 7 кадров
Идентификатор кодека : V_MPEG4/ISO/AVC
Продолжительность : 1 ч. 30 м.
Вид битрейта : Переменный
Битрейт : 11,8 Мбит/сек
Максимальный битрейт : 40,0 Мбит/сек
Ширина : 1920 пикселей
Высота : 800 пикселей
Соотношение сторон : 2,40:1
Частота кадров : 23,976 кадра/сек
Цветовое пространство : YUV
Субдискретизация насыщенности : 4:2:0
Битовая глубина : 8 бит
Тип развёртки : Прогрессивная
Бит/(Пиксели*Кадры) : 0.319
Размер потока : 7,24 Гбайт (88%)
Библиотека кодирования : x264 core 65 r1057M 5f8a149
Настройки программы : cabac=1 / ref=7 / deblock=1:-3:-3 / analyse=0x3:0x113 / me=umh / subme=7 / psy_rd=1.0:0.0 / mixed_ref=1 / me_range=27 / chroma_me=1 / trellis=2 / 8x8dct=1 / cqm=0 / deadzone=21,11 / chroma_qp_offset=-4 / threads=4 / nr=0 / decimate=0 / mbaff=0 / bframes=3 / b_pyramid=0 / b_adapt=2 / b_bias=0 / direct=3 / wpredb=1 / keyint=24 / keyint_min=2 / scenecut=40(pre) / rc=2pass / bitrate=11763 / ratetol=1.0 / qcomp=0.50 / qpmin=10 / qpmax=51 / qpstep=4 / cplxblur=20.0 / qblur=0.5 / vbv_maxrate=40000 / vbv_bufsize=40000 / ip_ratio=1.10 / pb_ratio=1.10 / aq=1:1.00
Язык : English

Аудио #1
Идентификатор : 2
Формат : AC-3
Формат/Информация : Audio Coding 3
Расширение режима : CM (complete main)
Идентификатор кодека : A_AC3
Продолжительность : 1 ч. 30 м.
Вид битрейта : Постоянный
Битрейт : 640 Кбит/сек
Каналы : 6 каналов
Расположение каналов : Front: L C R, Side: L R, LFE
Частота : 48,0 КГц
Битовая глубина : 16 бит
Метод сжатия : С потерями
Размер потока : 412 Мбайт (5%)
Заголовок : AC3 640 kbs
Язык : Russian

Аудио #2
Идентификатор : 3
Формат : AC-3
Формат/Информация : Audio Coding 3
Расширение режима : CM (complete main)
Идентификатор кодека : A_AC3
Продолжительность : 1 ч. 30 м.
Вид битрейта : Постоянный
Битрейт : 640 Кбит/сек
Каналы : 6 каналов
Расположение каналов : Front: L C R, Side: L R, LFE
Частота : 48,0 КГц
Битовая глубина : 16 бит
Метод сжатия : С потерями
Размер потока : 412 Мбайт (5%)
Заголовок : original 640 kbs
Язык : English

Свернуть
Скриншоты:
Изображение
Изображение
Изображение
Изображение
Изображение
Свернуть

_________________
http://retracker.local/announce - Ретрекер для АДС(Билайн) (Добавляйте его чтобы была возможность качать со скоростью 100мб\сек)
Изображение
Не в сети
Профиль  
 Добавлено: 2014-05-31 21:52 (спустя 2 года 3 месяца)
Стаж: 7 лет 11 месяцев
Сообщений: 20
раздайтне плиз
Не в сети
Профиль  
 Добавлено: 2014-06-14 10:41 (спустя 13 дней)
Аватара пользователя
Стаж: 8 лет 7 месяцев
Сообщений: 30
очень интересный фильм
Не в сети
Профиль  
 Добавлено: 2014-06-17 22:44 (спустя 3 дня)
Стаж: 7 лет 11 месяцев
Сообщений: 20
раздайт е плиз
Не в сети
Профиль  
 Добавлено: 2014-06-23 11:41 (спустя 5 дней)
Стаж: 2 года 6 месяцев
Сообщений: 7
фильм отличный
___________
http://www.co-bit.ru/vyishki-turyi-tipa-vpu.html
Не в сети
Профиль  
Начать новую темуОтветить на тему  [ Сообщений: 5 ] 
Вы не можете начинать темы
Вы не можете отвечать на сообщения
Вы не можете редактировать свои сообщения
Вы не можете удалять свои сообщения