Правила форума

  • В этом разделе создание новых тем Запрещено.
  • Для создания новых тем пользуйтесь Корневым разделом DVD и HD фильмы.
Начать новую темуОтветить на тему  [ Сообщений: 3 ] 
Торрент файл
Размер: 7.29 GB • Зарегистрирован: 5 лет 5 месяцев • Статус: Проверено
Скачан: 183 раза • Желающих скачать: 0 • Поблагодарили: 24 раза
 Раздают: 0  |  0 KB/s  ]   Качают: 0  |  0 KB/s  ] 
 Полного источника не было 2 года 10 месяцев 
Сообщения
 Добавлено: 2011-06-16 07:55
Модератор
Аватара пользователя
Стаж: 8 лет 1 месяц
Возраст: 20
Сообщений: 32130
Спасибок: 98568
Лайков: 80
Изображение

Игра без правил / Fair Game


Год выпуска: 2010
Страна: США, ОАЭ
Слоган: «Жена. Мать. Шпион.»

Жанр: триллер, драма, биография
Продолжительность: 01:47:46
Перевод: Профессиональный (полное дублирование) [лицензия]

Режиссер: Даг Лайман
В ролях: Наоми Уоттс, Шон Пенн, Соня Дэвисон, Ананд Тивари, Стефани Чай, Майкл Келли, Ти Баррелл, Джессика Хехт, Норберт Лео Батц, Ребекка Риггс
Бюджет: $22 000 000
Сборы в США: $9 540 691
Сборы в России: $34 983
Сборы в мире: $24 188 922

Мировая премьера: 20 мая 2010
Релиз на DVD: 7 июля 2011, «Парадиз Видео»
Релиз на Blu-ray: 28 июля 2011, «Парадиз Видео»
Описание: Грязные интриги Белого дома, тайны политики президента Буша, сенсационные факты о войне в Ираке… Один из самых громких политических скандалов США закручивается вокруг семьи посла Джона Уилсона и секретного агента Валери Плейм. Чтобы наказать бывшего дипломата, придавшего огласку секретным материалам, власти обвиняют его жену в шпионаже и угрожают расправой над семьей. Но Джо и Валери сломить невозможно, чтобы выжить, они готовят ответный удар.
Изображение
MPAA: Изображение - Детям до 13 лет просмотр не желателен
Качество: BDRip 1080p R5
Формат: Matroska

Видео: 7791 kb/s, 1920x800, 23.976 fps
Аудио: Russian: AC3, 384 kb/s (6 ch) / English: DTS, 1510 kb/s (6 ch)
Субтитры: Russian, English
Релиз группы: Изображение
Знаете ли Вы, что...
  • Изначально главные роли должны были исполнить Рассел Кроу и Николь Кидман.
Свернуть
MediaInfo
General
Complete name                    : Fair.Game.2010.D.BDRip.1080p.mkv
Format                           : Matroska
File size                        : 7.29 GiB
Duration                         : 1h 47mn
Overall bit rate                 : 9 694 Kbps
Movie name                       : uniongang.tv
Encoded date                     : UTC 2011-06-15 17:23:29
Writing application              : mkvmerge v3.4.0 ('Rapunzel') сборка от May 15 2010 09:38:20
Writing library                  : libebml v0.8.0 + libmatroska v0.9.0

Video
ID                               : 1
Format                           : AVC
Format/Info                      : Advanced Video Codec
Format profile                   : High@L4.1
Format settings, CABAC           : Yes
Format settings, ReFrames        : 5 frames
Codec ID                         : V_MPEG4/ISO/AVC
Duration                         : 1h 47mn
Bit rate                         : 7 791 Kbps
Width                            : 1 920 pixels
Height                           : 800 pixels
Display aspect ratio             : 2.40:1
Frame rate                       : 23.976 fps
Color space                      : YUV
Chroma subsampling               : 4:2:0
Bit depth                        : 8 bits
Scan type                        : Progressive
Bits/(Pixel*Frame)               : 0.212
Stream size                      : 5.72 GiB (78%)
Title                            : Fair.Game.2010.BluRay.1080p.DTS.x264-CHD
Writing library                  : x264 core 107 r1766 f9f0035
Encoding settings                : cabac=1 / ref=5 / deblock=1:-3:-3 / analyse=0x3:0x113 / me=umh / subme=10 / psy=1 / psy_rd=1.00:0.05 / mixed_ref=1 / me_range=48 / chroma_me=1 / trellis=2 / 8x8dct=1 / cqm=2 / deadzone=21,11 / fast_pskip=0 / chroma_qp_offset=-2 / threads=12 / sliced_threads=0 / nr=0 / decimate=1 / interlaced=0 / constrained_intra=0 / bframes=5 / b_pyramid=2 / b_adapt=2 / b_bias=0 / direct=3 / weightb=1 / open_gop=0 / weightp=2 / keyint=250 / keyint_min=23 / scenecut=40 / intra_refresh=0 / rc_lookahead=50 / rc=2pass / mbtree=1 / bitrate=7791 / ratetol=1.0 / qcomp=0.70 / qpmin=10 / qpmax=51 / qpstep=4 / cplxblur=20.0 / qblur=0.5 / vbv_maxrate=40000 / vbv_bufsize=30000 / ip_ratio=1.40 / aq=1:1.00 / nal_hrd=none
Language                         : English

Audio #1
ID                               : 2
Format                           : AC-3
Format/Info                      : Audio Coding 3
Mode extension                   : CM (complete main)
Codec ID                         : A_AC3
Duration                         : 1h 47mn
Bit rate mode                    : Constant
Bit rate                         : 384 Kbps
Channel(s)                       : 6 channels
Channel positions                : Front: L C R, Side: L R, LFE
Sampling rate                    : 48.0 KHz
Bit depth                        : 16 bits
Video delay                      : 4ms
Stream size                      : 296 MiB (4%)
Title                            : Дубляж R5
Language                         : Russian

Audio #2
ID                               : 3
Format                           : DTS
Format/Info                      : Digital Theater Systems
Codec ID                         : A_DTS
Duration                         : 1h 47mn
Bit rate mode                    : Constant
Bit rate                         : 1 510 Kbps
Channel(s)                       : 6 channels
Channel positions                : Front: L C R, Side: L R, LFE
Sampling rate                    : 48.0 KHz
Bit depth                        : 24 bits
Stream size                      : 1.14 GiB (16%)
Title                            : Оригинал
Language                         : English

Text #1
ID                               : 4
Format                           : UTF-8
Codec ID                         : S_TEXT/UTF8
Codec ID/Info                    : UTF-8 Plain Text
Title                            : Russian
Language                         : Russian

Text #2
ID                               : 5
Format                           : UTF-8
Codec ID                         : S_TEXT/UTF8
Codec ID/Info                    : UTF-8 Plain Text
Title                            : English
Language                         : English

Menu
00:00:00.000                     : :Chapter 01
00:05:13.730                     : :Chapter 02
00:09:18.933                     : :Chapter 03
00:14:47.428                     : :Chapter 04
00:21:17.943                     : :Chapter 05
00:27:58.802                     : :Chapter 06
00:34:56.594                     : :Chapter 07
00:41:12.219                     : :Chapter 08
00:49:09.237                     : :Chapter 09
00:54:25.804                     : :Chapter 10
01:00:06.853                     : :Chapter 11
01:06:55.261                     : :Chapter 12
01:11:50.264                     : :Chapter 13
01:17:42.824                     : :Chapter 14
01:21:50.280                     : :Chapter 15
01:27:16.606                     : :Chapter 16
01:30:24.752                     : :Chapter 17
01:37:45.359                     : :Chapter 18
Свернуть
Скриншоты
Изображение
Изображение
Изображение
Свернуть
Не в сети
Профиль  
 Добавлено: 2011-06-22 16:58 (спустя 6 дней)
Кинокомментатор
Аватара пользователя
Стаж: 9 лет 1 месяц
Сообщений: 1332
Лайков: 54
ну тааак се киношка) нудно, однотипно, интриги, интриги, интриги... можно поспать успеть) и не один раз:) наверно что то в себе это кино несёт) то что правительства врут и лишь в наших руках возможность всё изменить... или то что надо добиваться своего и идти к цели... но боже... как же этот фильм скучен%) 5
_________________
Я ВКонтакте
Не в сети
Профиль  
 Добавлено: 2013-07-23 17:38 (спустя 2 года 1 месяц)
Аватара пользователя
Стаж: 7 лет 2 месяца
Возраст: 35
Сообщений: 16
скорости ёлы палы спиду)))
Не в сети
Профиль  
Начать новую темуОтветить на тему  [ Сообщений: 3 ] 
Вы не можете начинать темы
Вы не можете отвечать на сообщения
Вы не можете редактировать свои сообщения
Вы не можете удалять свои сообщения