Правила форума

  • В этом разделе создание новых тем Запрещено.
  • Для создания новых тем пользуйтесь Корневым разделом DVD и HD фильмы.
Начать новую темуОтветить на тему  [ 1 сообщение ] 
Торрент файл
Размер: 3.74 GB • Зарегистрирован: 3 года 11 месяцев • Статус: T Временный релиз
Скачан: 51 раз • Желающих скачать: 0 • Поблагодарили: 7 раз
 Раздают: 0  |  0 KB/s  ]   Качают: 0  |  0 KB/s  ] 
 Полного источника не было 1 год 
Сообщения
 Добавлено: 2013-01-02 00:46
Модератор
Аватара пользователя
Стаж: 6 лет 10 месяцев
Возраст: 33
Сообщений: 5908
Спасибок: 61254
Лайков: 3540
Изображение

Игра Блэка
Svartur a leik


Год выпуска: 2012
Страна: Исландия
Жанр: триллер, криминал
Продолжительность: 01:45:28
Перевод: Любительский (одноголосый) [den904]
Режиссер: Оскар Тор Аксельссон
Сценарий: Оскар Тор Аксельссон, Stefán Máni
Продюсер: Арнар Кнутссон, Скали Фр. Малмквист, Тор Сигуёнссон, Крис Бриггс, Гейдар Мар Гудйонссон
Оператор: Бергштейн Бьёргулфссон
Композитор: Фрэнк Холл
В ролях: Thor Kristjansson, Йоханнес Хокур Йоханнессон, Дэймон Янгер, María Birta, Vignir Rafn Valþórsson, Эйидль Эйнарссон, Штейн Аманн Магнуссон, Андри Мар Биргиссон, Björn Jörundur Friðbjörnsson, Свеинн Геирссон, Тростур Лео Гуннарссон, Рунар Фрейр Гисласон

Мировая премьера: 1 февраля 2012
Описание: Криминальный фильм “Игра Блэка”, рассказывает нам о том какова была преступность в конце девяностых годов.
Фильм о преступном мире Рейкьявика конца 1990-х.


Изображение User Rating: 7.730 (37)
Изображение User Rating: 7.30 (880)
MPAA: R - Лицам до 17 лет обязательно присутствие взрослого
Изображение
Раздача группы: Изображение
Изображение
Качество: BDRip 720p
Формат: AVI
Видео: MPEG-4 AVC, 2677 Кбит/с, 1280x536, 23.976 кадр/сек
Аудио 1: Russian: AC3, 448 kb/s, 6 ch, 48,0 КГц Любительское (одноголосое) [den904], перевод [Janetta]
Аудио 2: Icelandic: AC3, 448 kb/s, 6 ch, 48,0 КГц
Аудио 3: German: DTS, 1510 kb/s, 6 ch, 48,0 КГц
mediainfo
Общее
Уникальный идентификатор : 184726138784145854262282586757798192876 (0x8AF8F5D0F2A95EE2A316305BDFE266EC)
Полное имя : E:торрентBlacks.Game.2012.L1.BDRip.720p.mkv
Формат : Matroska
Размер файла : 3,74 Гбайт
Продолжительность : 1 ч. 45 м.
Общий поток : 5081 Кбит/сек
Название фильма : GOLIAF.TV
Дата кодирования : UTC 2012-12-31 13:18:35
Программа кодирования : mkvmerge v5.6.0 ('Kenya Kane') built on May 27 2012 16:44:04
Библиотека кодирования : libebml v1.2.3 + libmatroska v1.3.0

Видео
Идентификатор : 1
Формат : AVC
Формат/Информация : Advanced Video Codec
Профиль формата : High@L4.1
Параметр CABAC формата : Да
Параметр ReFrames формата : 9 кадров
Параметры GOP формата : M=4, N=32
Идентификатор кодека : V_MPEG4/ISO/AVC
Продолжительность : 1 ч. 45 м.
Битрейт : 2677 Кбит/сек
Ширина : 1280 пикс.
Высота : 536 пикс.
Соотношение сторон : 2,35:1
Частота кадров : 23,976 кадр/сек
Цветовое пространство : YUV
Подвыборка цветности : 4:2:0
Битовая глубина : 8 бит
Тип развёртки : Прогрессивная
Бит/(Пиксели*Кадры) : 0.163
Размер потока : 1,90 Гбайт (51%)
Библиотека кодирования : x264 core 129 r2230 1cffe9f
Настройки программы : cabac=1 / ref=9 / deblock=1:-3:-3 / analyse=0x3:0x113 / me=umh / subme=10 / psy=1 / psy_rd=1.00:0.00 / mixed_ref=1 / me_range=16 / chroma_me=1 / trellis=2 / 8x8dct=1 / cqm=0 / deadzone=21,11 / fast_pskip=1 / chroma_qp_offset=-2 / threads=48 / lookahead_threads=8 / sliced_threads=0 / nr=0 / decimate=1 / interlaced=0 / bluray_compat=0 / constrained_intra=0 / bframes=3 / b_pyramid=2 / b_adapt=1 / b_bias=0 / direct=1 / weightb=1 / open_gop=0 / weightp=2 / keyint=250 / keyint_min=23 / scenecut=40 / intra_refresh=0 / rc=2pass / mbtree=0 / bitrate=2677 / ratetol=1.0 / qcomp=0.60 / qpmin=0 / qpmax=69 / qpstep=4 / cplxblur=20.0 / qblur=0.5 / ip_ratio=1.40 / pb_ratio=1.30 / aq=1:0.80
Язык : Icelandic

Аудио #1
Идентификатор : 2
Формат : AC-3
Формат/Информация : Audio Coding 3
Расширение режима : CM (complete main)
Идентификатор кодека : A_AC3
Продолжительность : 1 ч. 45 м.
Вид битрейта : Постоянный
Битрейт : 448 Кбит/сек
Каналы : 6 каналов
Расположение каналов : Front: L C R, Side: L R, LFE
Частота : 48,0 КГц
Битовая глубина : 16 бит
Метод сжатия : С потерями
Размер потока : 338 Мбайт (9%)
Язык : Russian

Аудио #2
Идентификатор : 3
Формат : AC-3
Формат/Информация : Audio Coding 3
Расширение режима : CM (complete main)
Идентификатор кодека : A_AC3
Продолжительность : 1 ч. 45 м.
Вид битрейта : Постоянный
Битрейт : 448 Кбит/сек
Каналы : 6 каналов
Расположение каналов : Front: L C R, Side: L R, LFE
Частота : 48,0 КГц
Битовая глубина : 16 бит
Метод сжатия : С потерями
Размер потока : 338 Мбайт (9%)
Язык : Icelandic

Аудио #3
Идентификатор : 4
Формат : DTS
Формат/Информация : Digital Theater Systems
Идентификатор кодека : A_DTS
Продолжительность : 1 ч. 45 м.
Вид битрейта : Постоянный
Битрейт : 1510 Кбит/сек
Каналы : 6 каналов
Расположение каналов : Front: L C R, Side: L R, LFE
Частота : 48,0 КГц
Битовая глубина : 24 бит
Метод сжатия : С потерями
Размер потока : 1,11 Гбайт (30%)
Заголовок : DTS
Язык : German

Текст
Идентификатор : 5
Формат : UTF-8
Идентификатор кодека : S_TEXT/UTF8
Идентификатор кодека/Информация : UTF-8 Plain Text
Заголовок : Forced
Язык : German

Меню
00:00:00.000 : de:00:00:00.000
00:07:59.479 : de:00:07:59.479
00:17:14.367 : de:00:17:14.367
00:24:27.800 : de:00:24:27.800
00:32:08.176 : de:00:32:08.176
00:39:05.468 : de:00:39:05.468
00:46:53.477 : de:00:46:53.477
00:57:07.799 : de:00:57:07.799
01:05:37.267 : de:01:05:37.267
01:14:17.119 : de:01:14:17.119
01:27:48.180 : de:01:27:48.180
01:40:59.178 : de:01:40:59.178
Свернуть
Скриншоты

Изображение
Изображение
Изображение
Изображение
Свернуть
_________________
ИзображениеИзображение Изображение
Изображение
 tany1984 и di-ys1 нравится это.
Не в сети
Профиль  
Начать новую темуОтветить на тему  [ 1 сообщение ] 
Вы не можете начинать темы
Вы не можете отвечать на сообщения
Вы не можете редактировать свои сообщения
Вы не можете удалять свои сообщения