Правила форума

  • В этом разделе создание новых тем Запрещено.
  • Для создания новых тем пользуйтесь Корневым разделом DVD и HD фильмы.
Начать новую темуОтветить на тему  [ Сообщений: 5 ] 
Торрент файл
Размер: 4.19 GB • Зарегистрирован: 2 года 10 месяцев • Статус: T Временный релиз
Скачан: 185 раз • Желающих скачать: 0 • Поблагодарили: 65 раз
 Раздают: 0  |  0 KB/s  ]   Качают: 0  |  0 KB/s  ] 
 Полного источника не было 9 часов 
Сообщения
 Добавлено: 2014-01-30 17:56
Книголюб
Аватара пользователя
Стаж: 7 лет 2 месяца
Сообщений: 2823
Спасибок: 48829
Лайков: 73
Игра Эндера
Ender's Game

«Это не игра»

Изображение


Год выпуска: 2013
Страна: США
Жанр: фантастика, боевик, приключения
Продолжительность: 01:53:48
Перевод:Профессиональный (полное дублирование)Звук с TS

Режиссёр: Гэвин Худ
В ролях: Эйса Баттерфилд, Харрисон Форд, Бен Кингсли, Виола Дэвис, Хейли Стайнфелд, Эбигейл Бреслин, Арамис Найт, Сурадж Партха, Мойзес Ариас, Кайлин Рамбо
Описание: Действие происходит в 2135 году. Человечество пережило два вторжения инопланетной расы «жукеров», лишь чудом уцелев, и готовится к очередному вторжению.

Для поиска пилотов и военачальников, способных принести Земле победу, создаётся военная школа, в которую отправляют самых талантливых детей. Среди этих детей Эндрю (Эндер) Виггин, будущий полководец Международного флота Земли и единственная надежда человечества на спасение.
Рейтинг MPAA: Рейтинг PG-13 (Дети до 13 лет допускаются на фильм только с родителями)
Мировая премьера: 24 октября 2013
Премьера в России: 31 октября 2013, «West»
Бюджет: $110 000 000
Изображение 7.0148807

Качество: WEB-DL 1080p
Формат: MKV
Видео кодек: H.264
Аудио кодек: AC3 (Dolby Digital)
Видео: 1912x792 23.976fps 4 458 Kbps
Аудио #1: RUS:48000Hz stereo 320 Kbps
Аудио #2: ENG:48000Hz 6ch 384 Kbps
MediaInfo
General
Unique ID : 170242852990415816718187896390790376387 (0x801394B1E0FB31CEB26B7DCCE31B6BC3)
Complete name : K:\Torrent\Igra.Endera..mkv
Format : Matroska
Format version : Version 2
File size : 4.19 GiB
Duration : 1h 53mn
Overall bit rate : 5 267 Kbps
Movie name : PublicHD
Encoded date : UTC 2014-01-28 12:22:49
Writing application : mkvmerge v6.7.0 ('Back to the Ground') 32bit built on Jan 8 2014 15:03:17
Writing library : libebml v1.3.0 + libmatroska v1.4.1
Attachment : Yes

Video
ID : 1
Format : AVC
Format/Info : Advanced Video Codec
Format profile : High@L4.0
Format settings, CABAC : Yes
Format settings, ReFrames : 5 frames
Codec ID : V_MPEG4/ISO/AVC
Duration : 1h 53mn
Bit rate : 4 458 Kbps
Width : 1 912 pixels
Height : 792 pixels
Display aspect ratio : 2.40:1
Frame rate : 23.976 fps
Color space : YUV
Chroma subsampling : 4:2:0
Bit depth : 8 bits
Scan type : Progressive
Bits/(Pixel*Frame) : 0.123
Stream size : 3.54 GiB (85%)
Title : PublicHD
Language : English
Default : Yes
Forced : No
Color primaries : BT.709-5, BT.1361, IEC 61966-2-4, SMPTE RP177
Transfer characteristics : BT.709-5, BT.1361
Matrix coefficients : BT.709-5, BT.1361, IEC 61966-2-4 709, SMPTE RP177

Audio #1
ID : 2
Format : AC-3
Format/Info : Audio Coding 3
Mode extension : CM (complete main)
Codec ID : A_AC3
Duration : 1h 53mn
Bit rate mode : Constant
Bit rate : 320 Kbps
Channel(s) : 2 channels
Channel positions : Front: L R
Sampling rate : 48.0 KHz
Bit depth : 16 bits
Compression mode : Lossy
Stream size : 260 MiB (6%)
Language : Russian
Default : Yes
Forced : No

Audio #2
ID : 3
Format : AC-3
Format/Info : Audio Coding 3
Mode extension : CM (complete main)
Codec ID : A_AC3
Duration : 1h 53mn
Bit rate mode : Constant
Bit rate : 384 Kbps
Channel(s) : 6 channels
Channel positions : Front: L C R, Side: L R, LFE
Sampling rate : 48.0 KHz
Bit depth : 16 bits
Compression mode : Lossy
Stream size : 313 MiB (7%)
Title : PublicHD
Language : English
Default : No
Forced : No

Text
ID : 4
Format : UTF-8
Codec ID : S_TEXT/UTF8
Codec ID/Info : UTF-8 Plain Text
Title : PublicHD
Language : English
Default : No
Forced : No

Menu
00:00:00.000 : en:Chapter 1
00:06:10.000 : en:Chapter 2
00:14:18.000 : en:Chapter 3
00:19:06.000 : en:Chapter 4
00:28:04.000 : en:Chapter 5
00:33:22.000 : en:Chapter 6
00:39:34.000 : en:Chapter 7
00:45:43.000 : en:Chapter 8
00:53:37.000 : en:Chapter 9
01:02:15.000 : en:Chapter 10
01:09:21.000 : en:Chapter 11
01:15:16.000 : en:Chapter 12
01:23:38.000 : en:Chapter 13
01:30:54.000 : en:Chapter 14
01:35:39.000 : en:Chapter 15
01:41:12.000 : en:Chapter 16


Свернуть

Скриншоты
Изображение
Изображение
Изображение
Изображение
Свернуть
 eminrap нравится это.
Не в сети
Профиль  
 Добавлено: 2014-01-31 22:38 (спустя 1 день 4 часа)
Аватара пользователя
Стаж: 7 лет 1 месяц
Сообщений: 10
Спасибок: 9
звук гуано, в некоторых местах даже зал слышно ))) а фильмец по моему фильмометру на 4+ ку
Не в сети
Профиль  
 Добавлено: 2014-02-01 21:05 (спустя 22 часа)
Аватара пользователя
Стаж: 7 лет 8 месяцев
Сообщений: 933
Лайков: 50
странные вы, уже давно есть line а вы до сих пор тску крутите)
Не в сети
Профиль  
 Добавлено: 2014-02-05 19:06 (спустя 3 дня)
Аватара пользователя
Стаж: 8 лет 3 месяца
Сообщений: 67
У меня русская дорожка маленько поскрипывает..
Не в сети
Профиль  
 Добавлено: 2014-03-13 13:55 (спустя 1 месяц 7 дней)
Аватара пользователя
Стаж: 8 лет 11 месяцев
Сообщений: 74
Спасибок: 8
Можно глянуть разок. Фильм конечно детский, но конца неожиданная
Не в сети
Профиль  
Начать новую темуОтветить на тему  [ Сообщений: 5 ] 
Вы не можете начинать темы
Вы не можете отвечать на сообщения
Вы не можете редактировать свои сообщения
Вы не можете удалять свои сообщения