Правила форума

  • В этом разделе создание новых тем Запрещено.
  • Для создания новых тем пользуйтесь Корневым разделом DVD и HD фильмы.
Начать новую темуОтветить на тему  [ Сообщений: 3 ] 
Торрент файл
Размер: 5.48 GB • Зарегистрирован: 3 года 11 месяцев • Статус: Проверено
Скачан: 10 раз • Желающих скачать: 0 • Поблагодарили: 1 раз
 Раздают: 0  |  0 KB/s  ]   Качают: 0  |  0 KB/s  ] 
 Полного источника не было 2 года 5 месяцев 
Сообщения
 Добавлено: 2012-12-26 21:35
Модератор
Аватара пользователя
Стаж: 6 лет 10 месяцев
Возраст: 33
Сообщений: 5908
Спасибок: 61253
Лайков: 3540
Изображение

Игра изменилась
Game Change


Год выпуска: 2012
Страна: США
Слоган: «Politics would never be the same.»
Жанр: драма, биография, история
Продолжительность: 01:57:52
Перевод: Профессиональный (двухголосый закадровый) [студия Elrom]
Режиссер: Джей Роуч
Сценарий: Дэнни Стронг, Марк Гэльперин, Джон Хайлеманн
Продюсер: Эми Сэйерс, Carrye Gilliland Glazar, Гари Гоэцман, Том Хэнкс, Джей Роуч
Оператор: Джим Дено
Композитор: Теодор Шапиро
В ролях: Джулианна Мур, Вуди Харрельсон, Эд Харрис, Питер МакНикол, Джейми Шеридан, Сара Полсон, Рон Ливингстон, Дэвид Бэрри Грэй, Ларри Салливан, Микал Эванс, Колби Френч, Брюс Олтмен

Мировая премьера: 28 февраля 2012
Описание: Рассказ пойдет о перипетиях президентской гонки в США в 2008 году, когда за пост главы страны боролись Барак Обама и Джон МакКейн.

Изображение User Rating: 7.144 (305)
Изображение User Rating: 7.50 (7 782)
Раздача группы: Изображение
Изображение
Качество: BDRip, 720p
Формат: Matroska
Видео: 4856 kb/s, 1280x720
Аудио №1: Russian: MP3, 160 kb/s (2 ch) / English: DTS, 1536 kb/s (6 ch)
mediainfo
General
Unique ID : 251720630348269154459573203480153845110 (0xBD5FA1451C0386F98BA0B27354226D76)
Complete name : Igra.izmenilas.2012.P.BDRip.720p.mkv
Format : Matroska
Format version : Version 2
File size : 5.48 GiB
Duration : 1h 57mn
Overall bit rate : 6 658 Kbps
Encoded date : UTC 2012-12-24 10:04:45
Writing application : mkvmerge v5.2.0 ('I can't explain') built on Dec 18 2011 18:12:03
Writing library : libebml v1.2.3 + libmatroska v1.3.0

Video
ID : 1
Format : AVC
Format/Info : Advanced Video Codec
Format profile : High@L4.1
Format settings, CABAC : Yes
Format settings, ReFrames : 5 frames
Codec ID : V_MPEG4/ISO/AVC
Duration : 1h 57mn
Bit rate : 4 856 Kbps
Nominal bit rate : 5 121 Kbps
Width : 1 280 pixels
Height : 720 pixels
Display aspect ratio : 16:9
Frame rate : 23.976 fps
Color space : YUV
Chroma subsampling : 4:2:0
Bit depth : 8 bits
Scan type : Progressive
Bits/(Pixel*Frame) : 0.220
Stream size : 4.00 GiB (73%)
Title : Game.Change.2012.720p.BluRay.x264-ABSOLVE
Writing library : x264 core 129 r2230 1cffe9f
Encoding settings : cabac=1 / ref=6 / deblock=1:-3:-3 / analyse=0x3:0x133 / me=umh / subme=9 / psy=1 / psy_rd=1.00:0.00 / mixed_ref=1 / me_range=16 / chroma_me=1 / trellis=2 / 8x8dct=1 / cqm=0 / deadzone=21,11 / fast_pskip=1 / chroma_qp_offset=-2 / threads=12 / lookahead_threads=2 / sliced_threads=0 / nr=0 / decimate=1 / interlaced=0 / bluray_compat=0 / constrained_intra=0 / bframes=3 / b_pyramid=1 / b_adapt=2 / b_bias=0 / direct=3 / weightb=1 / open_gop=0 / weightp=2 / keyint=240 / keyint_min=23 / scenecut=40 / intra_refresh=0 / rc_lookahead=40 / rc=abr / mbtree=1 / bitrate=5121 / ratetol=1.0 / qcomp=0.60 / qpmin=0 / qpmax=69 / qpstep=4 / ip_ratio=1.40 / aq=1:1.00
Language : English
Default : Yes
Forced : Yes

Audio #1
ID : 2
Format : MPEG Audio
Format version : Version 1
Format profile : Layer 3
Mode : Joint stereo
Codec ID : A_MPEG/L3
Codec ID/Hint : MP3
Duration : 1h 57mn
Bit rate mode : Constant
Bit rate : 160 Kbps
Channel(s) : 2 channels
Sampling rate : 48.0 KHz
Compression mode : Lossy
Stream size : 135 MiB (2%)
Title : MP3, 160 kb/s (2 ch), [студия Elrom]
Language : Russian
Default : Yes
Forced : Yes

Audio #2
ID : 3
Format : DTS
Format/Info : Digital Theater Systems
Codec ID : A_DTS
Duration : 1h 57mn
Bit rate mode : Constant
Bit rate : 1 510 Kbps
Channel(s) : 6 channels
Channel positions : Front: L C R, Side: L R, LFE
Sampling rate : 48.0 KHz
Bit depth : 24 bits
Compression mode : Lossy
Stream size : 1.24 GiB (23%)
Title : DTS ENG
Language : English
Default : No
Forced : No

Menu
00:00:00.000 : en:00:00:00.000
00:10:09.359 : en:00:10:09.359
00:19:08.939 : en:00:19:08.939
00:27:49.877 : en:00:27:49.877
00:36:07.624 : en:00:36:07.624
00:43:50.169 : en:00:43:50.169
00:52:55.381 : en:00:52:55.381
01:05:43.857 : en:01:05:43.857
01:14:16.243 : en:01:14:16.243
01:23:09.067 : en:01:23:09.067
01:32:13.486 : en:01:32:13.486
01:43:38.003 : en:01:43:38.003
01:54:47.839 : en:01:54:47.839
Свернуть
Скриншоты

Изображение
Изображение
Изображение
Изображение
Свернуть
_________________
ИзображениеИзображение Изображение
Изображение
 tany1984 и di-ys1 нравится это.
Не в сети
Профиль  
 Добавлено: 2012-12-27 01:41 (спустя 4 часа)
Аватара пользователя
Стаж: 4 года 2 месяца
Сообщений: 8
Статистика странная по раздаче - раздают двое, а у меня в ю-торенте - около трех десятков пиров, из них 20 - 100 проц закачки. Откуда-то еще раздают?
Не в сети
Профиль  
 Добавлено: 2012-12-27 07:54 (спустя 6 часов)
Стаж: 7 лет 10 месяцев
Сообщений: 20

Дракошка:

Откуда-то еще раздают?
DHT, кросспиринг или мультитрекинг
З.Ы. ИМХО лучше всего Пэйлин удалась у Лизы Энн xD
Не в сети
Профиль  
Начать новую темуОтветить на тему  [ Сообщений: 3 ] 
Вы не можете начинать темы
Вы не можете отвечать на сообщения
Вы не можете редактировать свои сообщения
Вы не можете удалять свои сообщения