Правила форума

  • В этом разделе создание новых тем Запрещено.
  • Для создания новых тем пользуйтесь Корневым разделом DVD и HD фильмы.
Начать новую темуОтветить на тему  [ Сообщений: 3 ] 
Торрент файл
Размер: 10.08 GB • Зарегистрирован: 4 года 8 месяцев • Статус: Проверено
Скачан: 64 раза • Желающих скачать: 0 • Поблагодарили: 13 раз
 Раздают: 0  |  0 KB/s  ]   Качают: 0  |  0 KB/s  ] 
 Полного источника не было 2 года 10 месяцев 
Сообщения
 Добавлено: 2012-04-06 15:13
Модератор релиз-группы
Аватара пользователя
Стаж: 9 лет 1 месяц
Возраст: 97
Сообщений: 11659
Спасибок: 6532
Лайков: 269
Игра на выживание / Gone

«Никто ей не верит. Ничто её не остановит.»

Изображение


Год выпуска: 2012
Страна: США
Жанр: триллер, драма
Продолжительность: 01:34:43
Перевод: Профессиональный (полное дублирование)
Роли дублировали:
Василиса Воронина,Даниил Эльдаров,Радик Мухаметзянов,Юрий Деркач,Илья Бледный

Режиссер: Эйтор Далия

В ролях: Аманда Сайфред, Дэниел Сунджата, Дженнифер Карпентер, Себастиан Стэн, Уэс Бентли, Ник Сирси, Сократис Отто, Эмили Уикершем, Джоэль Мур, Кэтрин Менниг

Описание: Джилл Пэрриш однажды приходит домой и не находит сестру. Джилл уверена, что серийный убийца, который похищал ее пару лет назад, вернулся, чтобы довести начатое до логического завершения. А начнет он с ее сестры. Полиция не воспринимает ее всерьез, говоря, что девушка объявится, когда нагуляется. Единственный выход - вступить в схватку с маньяком и разобраться с этим раз и навсегда

Изображение
Качество: BDRemux
Формат: mkv
Видео: AVC; 1920x1080 (16:9); 15439 Kbps; 24 fps; 0,310 bpp
Аудио: русский, AC3, 384 Kbps, 6 channels, Front: L C R, Side: L R, LFE, 48.0 KHz, 16 bits
скриншоты
Изображение

Изображение

Изображение
Свернуть
Mi
Format : Matroska
Format version : Version 2
File size : 10.1 GiB
Duration : 1h 34mn
Overall bit rate mode : Variable
Overall bit rate : 15.2 Mbps
Encoded date : UTC 2012-04-06 12:01:32
Writing application : mkvmerge v5.4.0 ('Piper') built on Mar 10 2012 13:34:39
Writing library : libebml v1.2.3 + libmatroska v1.3.0

Video
ID : 1
Format : AVC
Format/Info : Advanced Video Codec
Format profile : High@L4.1
Format settings, CABAC : Yes
Format settings, ReFrames : 4 frames
Format settings, GOP : M=3, N=18
Codec ID : V_MPEG4/ISO/AVC
Duration : 1h 34mn
Bit rate mode : Variable
Bit rate : 14.5 Mbps
Maximum bit rate : 30.0 Mbps
Width : 1 920 pixels
Height : 1 080 pixels
Display aspect ratio : 16:9
Frame rate : 24.000 fps
Standard : PAL
Color space : YUV
Chroma subsampling : 4:2:0
Bit depth : 8 bits
Scan type : Progressive
Bits/(Pixel*Frame) : 0.292
Stream size : 9.62 GiB (95%)
Default : Yes
Forced : No
Color primaries : BT.709-5, BT.1361, IEC 61966-2-4, SMPTE RP177
Transfer characteristics : BT.709-5, BT.1361
Matrix coefficients : BT.709-5, BT.1361, IEC 61966-2-4 709, SMPTE RP177

Audio
ID : 2
Format : AC-3
Format/Info : Audio Coding 3
Mode extension : CM (complete main)
Codec ID : A_AC3
Duration : 1h 34mn
Bit rate mode : Constant
Bit rate : 384 Kbps
Channel(s) : 6 channels
Channel positions : Front: L C R, Side: L R, LFE
Sampling rate : 48.0 KHz
Bit depth : 16 bits
Compression mode : Lossy
Stream size : 260 MiB (3%)
Default : Yes
Forced : No

Свернуть
_________________
Изображение
Не в сети
Профиль  
 Добавлено: 2013-07-31 11:37 (спустя 1 год 3 месяца)
Стаж: 8 лет 10 месяцев
Сообщений: 32
Спасибок: 45
как фильм??????????????????????
Не в сети
Профиль  
 Добавлено: 2013-08-27 22:31 (спустя 27 дней)
Аватара пользователя
Стаж: 6 лет 6 месяцев
Возраст: 28
Сообщений: 46
уснул...
Не в сети
Профиль  
Начать новую темуОтветить на тему  [ Сообщений: 3 ] 
Вы не можете начинать темы
Вы не можете отвечать на сообщения
Вы не можете редактировать свои сообщения
Вы не можете удалять свои сообщения