Правила форума

  • В этом разделе создание новых тем Запрещено.
  • Для создания новых тем пользуйтесь Корневым разделом DVD и HD фильмы.
Начать новую темуОтветить на тему  [ Сообщений: 2 ] 
Торрент файл
Размер: 3.12 GB • Зарегистрирован: 4 года 7 месяцев • Статус: Проверено
Скачан: 57 раз • Желающих скачать: 0 • Поблагодарили: 7 раз
 Раздают: 0  |  0 KB/s  ]   Качают: 0  |  0 KB/s  ] 
 Полного источника не было 2 года 10 месяцев 
Сообщения
 Добавлено: 2012-04-06 15:19
Аватара пользователя
Стаж: 4 года 11 месяцев
Сообщений: 24
Спасибок: 357
Игра на выживание
Gone


«Никто ей не верит. Ничто её не остановит.»

Изображение


Год выхода: 2012
Страна: США

Жанр: триллер, драма
Продолжительность: 01:34:43
Перевод: Дублированное [лицензия]

Режиссер: Эйтор Далия
Сценарий: Эллисон Барнетт
Продюсер: Дэн Абрамс, Сидни Киммел, Гари Лучези
Оператор: Майкл Грэйди
Композитор: Дэвид Баккли

В ролях: Аманда Сайфред, Дженнифер Карпентер, Уэс Бентли, Ник Сирси, Сократис Отто, Эмили Уикершем, Джоэль Мур, Кэтрин Менниг, Дэниел Сунджата, Себастиан Стэн

Описание: Джилл Пэрриш однажды приходит домой и не находит сестру. Джилл уверена, что серийный убийца, который похищал ее пару лет назад, вернулся, чтобы довести начатое до логического завершения. А начнет он с ее сестры. Полиция не воспринимает ее всерьез, говоря, что девушка объявится, когда нагуляется. Единственный выход — вступить в схватку с маньяком и разобраться с этим раз и навсегда.

Изображение

Изображение

Cборы в США: $11 593 066
Cборы в мире: + $843 578 = $12 436 644
Cборы в России:$1 035 035

Качество BDRip 720p R5
Формат: Mkv

Видео: MPEG4 Video (H264) 1280x528 24.00fps
Аудио: DTS 48000Hz 6ch 1 510 Kbps


Изображение

MediaInfo
General
Unique ID : 207355632927109702774315143944800662790 (0x9BFF3E04B2675BDFA2D25A59BB0D7506)
Complete name : D:\Gone.D.2012.DVD_RG.BDRip720p..mkv
Format : Matroska
Format version : Version 2
File size : 3.12 GiB
Duration : 1h 34mn
Overall bit rate : 4 708 Kbps
Movie name : Gone.D.2012.BDRip720p.[uniongang.tv]
Encoded date : UTC 2012-04-06 08:27:29
Writing application : mkvmerge v5.3.0 ('I could have danced') built on Feb 9 2012 10:38:07
Writing library : libebml v1.2.3 + libmatroska v1.3.0

Video
ID : 1
Format : AVC
Format/Info : Advanced Video Codec
Format profile : High@L4.1
Format settings, CABAC : Yes
Format settings, ReFrames : 11 frames
Codec ID : V_MPEG4/ISO/AVC
Duration : 1h 34mn
Bit rate : 3 200 Kbps
Width : 1 280 pixels
Height : 528 pixels
Display aspect ratio : 2.40:1
Frame rate : 24.000 fps
Color space : YUV
Chroma subsampling : 4:2:0
Bit depth : 8 bits
Scan type : Progressive
Bits/(Pixel*Frame) : 0.197
Stream size : 2.05 GiB (66%)
Title : Gone.D.2012.BDRip720p.[uniongang.tv]
Writing library : x264 core 119 r2106 07efeb4
Encoding settings : cabac=1 / ref=11 / deblock=1:-3:-3 / analyse=0x3:0x113 / me=umh / subme=9 / psy=1 / psy_rd=1.00:0.10 / mixed_ref=1 / me_range=32 / chroma_me=1 / trellis=2 / 8x8dct=1 / cqm=0 / deadzone=21,11 / fast_pskip=0 / chroma_qp_offset=-3 / threads=6 / sliced_threads=0 / nr=0 / decimate=1 / interlaced=0 / bluray_compat=0 / constrained_intra=0 / bframes=8 / b_pyramid=2 / b_adapt=2 / b_bias=0 / direct=3 / weightb=1 / open_gop=0 / weightp=2 / keyint=250 / keyint_min=23 / scenecut=40 / intra_refresh=0 / rc_lookahead=50 / rc=2pass / mbtree=1 / bitrate=3200 / ratetol=1.0 / qcomp=0.60 / qpmin=0 / qpmax=69 / qpstep=4 / cplxblur=20.0 / qblur=0.5 / ip_ratio=1.40 / aq=1:1.00
Language : Russian
Default : Yes
Forced : No

Audio
ID : 2
Format : DTS
Format/Info : Digital Theater Systems
Codec ID : A_DTS
Duration : 1h 34mn
Bit rate mode : Constant
Bit rate : 1 510 Kbps
Channel(s) : 6 channels
Channel positions : Front: L C R, Side: L R, LFE
Sampling rate : 48.0 KHz
Bit depth : 24 bits
Compression mode : Lossy
Stream size : 1 023 MiB (32%)
Title : DTS-HD MA@1830 kb/s
Language : Russian
Default : Yes
Forced : No


Свернуть
Скриншоты
Изображение

Изображение

Изображение

Изображение

Изображение
Свернуть
Не в сети
Профиль  
 Добавлено: 2012-05-08 18:27 (спустя 1 месяц 2 дня)
Аватара пользователя
Стаж: 9 лет
Сообщений: 41
Спасибок: 7
как фильм?
Не в сети
Профиль  
Начать новую темуОтветить на тему  [ Сообщений: 2 ] 
Вы не можете начинать темы
Вы не можете отвечать на сообщения
Вы не можете редактировать свои сообщения
Вы не можете удалять свои сообщения